魔理沙は大変なものを盗んでいきました
ARM+夕野ヨシミ (IOSYS) feat. 藤咲かりん

ADVANCED

Level: 6
BPM: 170
Notes: 548

1
口口口口 |----|
口口口口 |----|
口口口口 |----|
口口口口 |----|
2
②口口口 |①---|
③口口口 |----|
口①①口 |②---|
口口口口 |③---|
3
口②③④ |①---|
口口口口 |----|
口①①口 |②-③-|
口口口口 |④---|
4
②口口口 |①---|
③口口口 |----|
口①①口 |②---|
口口口口 |③---|
5
②②②② |①---|
口口口口 |----|
口①①口 |②---|
口口口口 |----|
6
②口口③ |①---|
口口口口 |----|
口①①口 |②---|
口口口口 |③---|
7
③口口② |①---|
口口口口 |----|
口①①口 |②---|
口口口口 |③---|
8
②口口③ |①---|
口口口口 |----|
口①①口 |②---|
口口口口 |③---|
9
④口口④ |①---|
口①②口 |②---|
口②①口 |③---|
口③③口 |④---|
10
口口口口 |①-②-|
口②①口 |③-④-|
口④③口 |⑤-⑥-|
⑧⑥⑤⑦ |⑦-⑧-|
11
口⑦⑦口 |①-②-|
④⑥⑥③ |③-④-|
②⑤⑤① |⑤-⑥-|
口口口口 |⑦---|
12
口口口口 |①-②-|
②口口① |③-④-|
④口口③ |⑤-⑥-|
⑥⑧⑦⑤ |⑦-⑧-|
13
⑦口口⑦ |①-②-|
⑥④③⑥ |③-④-|
⑤②①⑤ |⑤-⑥-|
口口口口 |⑦---|
14
口口口口 |①-②-|
口②①口 |③-④-|
口④③口 |⑤-⑥-|
⑧⑥⑤⑦ |⑦-⑧-|
15
口⑦⑦口 |①-②-|
④⑥⑥③ |③-④-|
②⑤⑤① |⑤-⑥-|
口口口口 |⑦---|
16
口口口口 |①---|
口③④口 |②---|
①④③② |③---|
口①②口 |④---|
17
②口口① |①---|
②口口① |②---|
⑥⑤④③ |③-④-|
⑥⑤④③ |⑤-⑥-|
18
口④⑦① |①-②-|
⑧②口⑤ |③-④-|
口⑥口③ |⑤-⑥-|
口口口口 |⑦-⑧-|
19
②⑦口⑦ |①-②-|
口口③⑥ |③-④-|
④口①⑤ |⑤-⑥-|
口口口口 |⑦---|
20
①⑦④口 |①-②-|
⑤口②⑧ |③-④-|
③口⑥口 |⑤-⑥-|
口口口口 |⑦-⑧-|
21
⑦口⑦② |①-②-|
⑥③口口 |③-④-|
⑤①口④ |⑤-⑥-|
口口口口 |⑦---|
22
口④⑦① |①-②-|
⑧②口⑤ |③-④-|
口⑥口③ |⑤-⑥-|
口口口口 |⑦-⑧-|
23
②⑦口⑦ |①-②-|
口口③⑥ |③-④-|
④口①⑤ |⑤-⑥-|
口口口口 |⑦---|
24
口口口口 |①-②-|
口②①口 |③-④-|
口④③口 |⑤-⑥-|
⑧⑥⑤⑦ |⑦-⑧-|
25
口口口口 |①-②-|
④⑥⑥③ |③-④-|
②口口① |⑤---|
口⑤⑤口 |⑥---|
26
口口口口 |--①-|
口口口口 |--②-|
④③②① |--③-|
口口口口 |--④-|
27
口口口口 |--①-|
①②③④ |--②-|
口口口口 |--③-|
口口口口 |--④-|
28
口口口口 |--①-|
口口口口 |--②-|
④③②① |--③-|
口口口口 |--④-|
29
口口口口 |--①-|
①②③④ |--②-|
口口口口 |--③-|
口口口口 |--④-|
30
口⑤④口 |①--②|
①口⑥口 |--③-|
口②⑥口 |④-⑤-|
③口口口 |⑥---|
31
口⑤④口 |①--②|
①口⑥口 |--③-|
口②⑥口 |④-⑤-|
③口口口 |⑥---|
32
口⑤④口 |①--②|
①口⑥口 |--③-|
口②⑥口 |④-⑤-|
③口口口 |⑥---|
33
口口口口 |①-②-|
⑧口口⑦ |③-④-|
⑥口口⑤ |⑤-⑥-|
④②①③ |⑦-⑧-|
34
④口口① |①---|
口④①口 |②---|
口②③口 |③---|
②口口③ |④---|
35
④口口① |①---|
口④①口 |②---|
口②③口 |③---|
②口口③ |④---|
36
口④①口 |①---|
④口口① |②---|
②口口③ |③---|
口②③口 |④---|
37
口口①口 |①---|
口③③① |②---|
②③③口 |③---|
口②口口 |----|
38
口④①口 |①---|
④口口① |②---|
②口口③ |③---|
口②③口 |④---|
39
口④①口 |①---|
④口口① |②---|
②口口③ |③---|
口②③口 |④---|
40
④口口① |①---|
口④①口 |②---|
口②③口 |③---|
②口口③ |④---|
41
口口口① |①---|
③口①③ |②---|
③②口③ |③---|
②口口口 |----|
42
口⑤①口 |①-②-|
口⑥②口 |③-④-|
口⑦③口 |⑤-⑥-|
口⑧④口 |⑦-⑧-|
43
⑤口口① |①-②-|
⑥口口② |③-④-|
⑦口口③ |⑤-⑥-|
⑧口口④ |⑦-⑧-|
44
口⑧④口 |①-②-|
口⑦③口 |③-④-|
口⑥②口 |⑤-⑥-|
口⑤①口 |⑦-⑧-|
45
⑧口口④ |①-②-|
⑦口口③ |③-④-|
⑥口口② |⑤-⑥-|
⑤口口① |⑦-⑧-|
46
口口口口 |①---|
③①②④ |②---|
④②①③ |③---|
口口口口 |④---|
47
③①②④ |①---|
口口口口 |②---|
口口口口 |③---|
④②①③ |④---|
48
口口口口 |①---|
口②口口 |②---|
口①口④ |③---|
口口③口 |④---|
49
口②②② |①---|
①口④口 |②---|
口③⑤口 |③---|
口口口口 |--④⑤|
50
口口口口 |①---|
口②口口 |----|
口③口口 |----|
口口①口 |--②③|
51
口口口口 |①---|
口口口口 |----|
口口口口 |②---|
②①口② |----|
52
口①①口 |①---|
口口口口 |②---|
③④口② |③-④-|
口口口⑤ |--⑤-|
53
口口口口 |--①-|
口③③⑤ |②---|
口口口④ |③---|
①②口口 |④-⑤-|
54
口口口① |①---|
口②口口 |----|
口③口口 |②---|
口口口口 |③---|
55
口①①口 |①---|
②口口口 |--②-|
口③口口 |----|
口口口口 |③---|
56
口口口口 |①---|
口口②口 |--②-|
口③口口 |----|
口①口口 |③---|
57
口口口口 |①---|
④口口④ |----|
口③③口 |②--③|
②①口② |--④-|
58
口口口口 |①---|
口①①口 |----|
口口口口
口口口口

口口口口
口口②口
口口③口 |----|
口口口口 |--②③|
59
口口口口 |①---|
口口口口 |----|
口口口口 |②---|
②口①② |----|
60
口①①口 |①---|
口口口口 |②---|
③④口② |③-④-|
口口口⑤ |--⑤-|
61
口⑤⑤口 |--①-|
④口口④ |②---|
口③③口 |③--④|
①②口口 |--⑤-|
62
口口口口 |----|
口口口② |--①-|
口①①② |----|
②口口口 |②---|
63
口②②口 |①---|
①口口口 |--②-|
①③③口 |----|
口口口① |③---|
64
口②②口 |①---|
②口口② |--②-|
口口口口 |----|
口①①口 |----|
65
口⑧⑦口 |①-②-|
口⑥⑤口 |③-④-|
口④③口 |⑤-⑥-|
口②①口 |⑦-⑧-|
66
⑤口口⑤ |①---|
口③②② |②---|
口④口口 |③-④-|
口口①① |--⑤-|
67
口口口口 |----|
口口口口 |----|
口口口口 |----|
口口口口 |----|
68
口口口③ |①---|
②②④口 |②---|
口口口⑤ |③--④|
①①口口 |--⑤-|
69
口⑦⑧口 |①-②-|
口⑤⑥口 |③-④-|
口③④口 |⑤-⑥-|
口①②口 |⑦-⑧-|
70
口⑤⑤口 |①---|
②②③口 |②---|
口口④口 |③-④-|
①①口口 |--⑤-|
71
①口口① |--①-|
②口口口 |--②-|
③口口口 |③---|
口口④④ |④---|
72
口⑤⑤口 |①---|
口②①口 |②---|
③①②③ |③--④|
口④④口 |--⑤-|
73
⑧口口⑦ |①-②-|
⑥口口⑤ |③-④-|
④口口③ |⑤-⑥-|
②口口① |⑦-⑧-|
74
⑤口口⑤ |①---|
口③②② |②---|
口口④口 |③--④|
口口①① |--⑤-|
75
口口口口 |----|
口口口口 |----|
口口口口 |----|
口口口口 |----|
76
口口口③ |①---|
②②④口 |②---|
口口口⑤ |③--④|
①①口口 |--⑤-|
77
口⑦⑧口 |①-②-|
口⑤⑥口 |③-④-|
口③④口 |⑤-⑥-|
口①②口 |⑦-⑧-|
78
口⑤⑤口 |①---|
②②③口 |②---|
口④口口 |③--④|
①①口口 |--⑤-|
79
①口口① |--①-|
②口口口 |--②-|
③口口口 |③---|
口口④④ |④---|
80
②口口① |①---|
口②①口 |----|
口①②口 |②---|
口口口口 |----|
81
口①①口 |①---|
口②③口 |--②-|
口④口口 |③--④|
口口⑤口 |--⑤-|
82
①口口① |①---|
口口口口 |----|
口口口口 |----|
口口口口 |----|
83
①口口① |①-②③|
口②⑤⑧ |④-⑤⑥|
口③⑥⑨ |⑦-⑧⑨|
口④⑦⑩ |⑩---|
84
①①①① |①---|
口口口口 |----|
口口口口 |----|
口口口口 |----|

不確定度: 0

最終更新:2016年07月27日 22:39