水月鏡花のコノテーション
日向美ビタースイーツ♪
ADVANCED
Level: 6
BPM: 185
Notes: 463
1
口口口口 |----|
口口口口 |----|
口口口口 |----|
口口口口 |----|
2
口口口口 |----|
口口口口 |----|
口口口口 |----|
口口口口 |----|
3
口口①口 |----|
口②口口 |①---|
口④③口 |②---|
口口口口 |③-④-|
4
口口口口 |----|
口口①口 |①---|
③口口口 |②---|
口口②口 |③---|
5
口口口∨ |①---|
口口口| |----|
口口口①
口口口口
∨口口口
|口口口
②口口② |----|
口口口口 |②---|
6
口④口口 |----|
口口③口 |----|
①②口口 |①-②-|
口口①口 |③-④-|
7
口口口∨ |①---|
口口口| |----|
口口口①
口口口口
口③口口
口口口口
口②口② |----|
口口口口 |②-③-|
8
口口口口 |----|
∨口口口 |----|
|口口口 |①---|
①口口口 |----|
9
>②②< |①---|
口①①口 |②---|
口口口口 |----|
①口口口 |----|
10
口①①口 |①---|
口口口口 |----|
口口口口 |----|
口口口口 |----|
11
口①口口 |----|
口口②口 |①---|
口③④口 |②---|
口口口口 |③-④-|
12
口口口口 |----|
口①口口 |①---|
口口口③ |②---|
口②口口 |③---|
13
∨口口口 |①---|
|口口口 |----|
①口口口
口口口口
口口口∨
口口口|
②口口② |----|
口口口口 |②---|
14
口口④口 |----|
口③口口 |----|
口口②① |①-②-|
口①口口 |③-④-|
15
∨口口口 |①---|
|口口口 |----|
①口口口
口口口口
口口③口
口口口口
②口②口 |----|
口口口口 |②-③-|
16
口口口口 |----|
口口口∨ |----|
口口口| |①---|
口口口① |----|
17
>②②< |①---|
口①①口 |②---|
口口口口 |----|
口口口① |----|
18
口①①口 |①---|
口口口口 |----|
口口口口 |----|
口口口口 |----|
19
①①②② |①-②-|
⑤⑤⑥⑥ |--③-|
③③④④ |④---|
口口口口 |⑤-⑥-|
20
口口口口 |--①-|
口口口口 |②---|
口口口口 |----|
①①②② |----|
21
口口口口 |①-②-|
③③④④ |--③-|
⑤⑤⑥⑥ |④---|
①①②② |⑤-⑥-|
22
①①②② |--①-|
口口口口 |②---|
口口口口 |----|
口口口口 |----|
23
①①④④ |①-②-|
⑤⑤口口 |--③-|
③③②② |④---|
口口⑥⑥ |⑤-⑥-|
24
口口口口 |--①-|
口口②② |②---|
口口口口 |----|
①①口口 |----|
25
①①④④ |①-②-|
⑤⑤口口 |--③-|
③③②② |④---|
口口⑥⑥ |⑤-⑥-|
26
口口口口 |--①-|
口口②② |②---|
口口口口 |----|
①①口口 |----|
27
口∨口口 |----|
口④③口 |①---|
口②口口 |②---|
口口①口 |③-④-|
28
口口②口 |----|
③①口口 |①---|
口口口口 |②---|
口口口口 |③---|
29
口③口∨ |①---|
口口②| |②---|
口④口⑤ |③---|
口口①口 |④-⑤-|
30
口口口口 |----|
口口口口 |----|
口口口① |①---|
口口口口 |----|
31
口①①口 |①---|
口④③口 |----|
口②②口 |②---|
口口口口 |③-④-|
32
口口①∨ |----|
口③口| |①---|
口口口④ |②---|
口②口口 |③-④-|
33
②口口口 |----|
口③口口 |①---|
①口口口 |②---|
口口口口 |③---|
34
口口口口 |①---|
①口口口 |②---|
口③③① |③---|
口②口口 |----|
35
口口口∨ |----|
口③口④ |①---|
口②口口 |②---|
口①口口 |③-④-|
36
口口②口 |----|
口口③① |①---|
口口口口 |②---|
口口口口 |③---|
37
>―⑤口 |①---|
口③口口 |②---|
口②④口 |③---|
口口①口 |④-⑤-|
38
口③①② |----|
口口口口 |----|
口口口口 |①---|
口口口口 |②-③-|
39
口口口口 |----|
口口口口 |----|
①口②口 |----|
口口口口 |①-②-|
40
口口口口 |----|
口口②口 |----|
口口口口 |①---|
口口①口 |②---|
41
③口口③ |①---|
口口口口 |----|
①②②① |②---|
口口口口 |--③-|
42
口口口口 |----|
①②③④ |----|
口口口| |①-②-|
口口口∧ |③-④-|
43
口口口口 |----|
口口口① |----|
口口口口 |①---|
口口口口 |----|
44
∨口口口 |----|
|口口口 |----|
④③②① |①-②-|
口口口口 |③-④-|
45
口口口口 |----|
口③③口 |----|
①口口口 |①---|
口②口口 |②-③-|
46
口口∨口 |----|
①口|① |①---|
②③④② |②---|
口口口口 |③-④-|
47
口口口口 |----|
口口口口 |----|
口口①口 |①---|
口口口口 |----|
48
口口口口 |----|
口口口口 |----|
口③④口 |①-②-|
口①②口 |③-④-|
49
口口口口 |①---|
①口口① |----|
口②③口 |----|
口口口口 |②-③-|
50
①口口① |----|
②口口② |①---|
口③③口 |②---|
口口口口 |③---|
51
③④④③ |①---|
口||口 |--②-|
②||② |--③-|
①∧∧① |④---|
52
口①①口 |----|
口口口口 |----|
口口口口 |①---|
口口口口 |----|
53
①∨∨① |①---|
②||② |--②-|
口||口 |--③-|
③④④③ |④---|
54
口口口口 |----|
口口口口 |----|
口口口口 |----|
口①①口 |①---|
55
③④④③ |①---|
口∧∧口 |--②-|
②口口② |--③-|
①口口① |④---|
56
口①①口 |----|
口口口口 |①---|
口②③口 |②---|
口口口口 |③---|
57
②③③② |①---|
口口口口 |--②-|
①口口① |----|
口口口口 |③---|
58
口口口口 |--①-|
口③③口 |----|
口②②口 |②---|
口①①口 |③---|
59
①口口① |①---|
|口口| |----|
|口口|
∧口口∧
②口口②
口③④口
口口口口 |②---|
口口口口 |③-④-|
60
口口口口 |----|
口③④口 |①---|
口口②口 |②---|
口①口口 |③-④-|
61
口口口口 |----|
②口口③ |①---|
口口口口 |②---|
口口①口 |③---|
62
口口口口 |①---|
口②②口 |--②-|
①③③① |----|
口口口口 |③---|
63
①口口① |①---|
|口口| |----|
|口口|
∧口口∧
②④④②
口③③口
口口口口 |②---|
口口口口 |③-④-|
64
口口口口 |----|
口④③口 |①---|
口②口口 |②---|
口口①口 |③-④-|
65
口口①口 |----|
②口口口 |①---|
口口口③ |②---|
口口口口 |③---|
66
口口口口 |①---|
②口口② |--②-|
口口口口
口①①口
口③④⑤
口口口|
口口口∧ |--③-|
口口口口 |④-⑤-|
67
口口口① |①-②-|
④③②口 |③-④-|
|口口口
∧口口口
口口口∨
⑤口口|
口⑥⑦⑧ |⑤-⑥-|
口口口口 |⑦-⑧-|
68
口口口口 |①-②-|
∨口口口 |③-④-|
|口口①
④③②口
口⑥口⑥
口口口口
口口口口 |⑤---|
⑤口口口 |⑥---|
69
口口口口 |①---|
①②①② |②---|
口③口③ |③---|
④口④口 |④---|
70
口口口口 |①---|
口②口② |--②-|
①口①口
口口口口
口③④⑤
口口口|
口口口∧ |--③-|
口口口口 |④-⑤-|
71
口口口① |①-②-|
④③②口 |③-④-|
|口口口
∧口口口
口口口∨
⑤口口|
口⑥⑦⑧ |⑤-⑥-|
口口口口 |⑦-⑧-|
72
口口口口 |①-②-|
∨口口口 |③-④-|
|口口①
④③②口
口⑥口⑥
口口口口
口口口口 |⑤---|
⑤口口口 |⑥---|
73
口口口口 |①---|
①②①② |②---|
口③口③ |③---|
④口④口 |④---|
74
口③口口 |①---|
口②口② |--②-|
①口①口 |----|
口口口口 |③---|
75
①口口② |①---|
|口口口 |--②-|
|口③① |----|
∧口口口 |③---|
76
①口②口 |①-②-|
口③③口 |----|
口④④口 |③---|
口口口口 |④---|
77
∨口口口 |①---|
|口②口 |--②-|
|口口口 |----|
①口①③ |③---|
78
口口口口 |①-②-|
口④④② |----|
口③③口 |③---|
①口口口 |④---|
79
①口①③ |①---|
|口口口 |--②-|
|口②口 |----|
∧口口口 |③---|
80
①口口口 |①-②-|
口口④口 |----|
口口口② |③---|
口③③口 |④---|
81
①①①口 |①---|
||口③ |--②-|
||②口 |----|
∧∧口口 |③---|
82
②②口口 |--①-|
口③④口 |②---|
口④③口 |③---|
口口口① |④---|
83
口口口① |①---|
口②口| |--②-|
口口口| |----|
③①口∧ |③---|
84
口③口① |①-②-|
②④③口 |----|
口口④口 |③---|
口口口口 |④---|
85
口②口∨ |①---|
口口口| |--②-|
③①口| |----|
口口口① |③---|
86
②口口口 |①-②-|
口口④口 |----|
口④③口 |③---|
口③口① |④---|
87
口口口① |①---|
③①口| |--②-|
口口口| |----|
②口口∧ |③---|
88
口口口① |①-②-|
口④口口 |----|
口③③口 |③---|
口②口口 |④---|
89
③①①① |①---|
口口|| |--②-|
口②|| |----|
口口∧∧ |③---|
90
口③③③ |--①-|
口口口口 |----|
①②口口 |②---|
口口口口 |③---|
91
口口口口 |①-②-|
⑧②①⑦ |③-④-|
⑥④③⑤ |⑤-⑥-|
口口口口 |⑦-⑧-|
92
口口口口 |①-②-|
口②①口 |③-④-|
⑧④③⑦ |⑤-⑥-|
⑥口口⑤ |⑦-⑧-|
93
口口口口 |①-②-|
⑥⑧⑦⑤ |③-④-|
口④③口 |⑤-⑥-|
口②①口 |⑦-⑧-|
94
口口口口 |①-②-|
口⑧⑦口 |③-④-|
②⑥⑤① |⑤-⑥-|
口④③口 |⑦-⑧-|
不確定度: 0