トリカゴノ鳳凰 [2]
L.E.D. Vs. 幽閉サテライト
BASIC
Level: 4
BPM: 185
Notes: 316
1
口口口口 |----|
口口口口 |----|
口口口口 |----|
口口口口 |----|
2
口口∨口 |①---|
口口①口 |----|
口口口口 |----|
口口口口 |----|
3
口口口口 |----|
口口口口 |----|
口口口口 |----|
口口口口 |----|
4
口∨口口 |①---|
口①①口 |----|
口口口口 |----|
口口口口 |----|
5
口口口口 |----|
口口口口 |----|
口口口口 |----|
口口口口 |----|
6
口口口口 |①---|
口①∨口 |----|
口口①口 |----|
口口口口 |----|
7
口口口口 |----|
口口口口 |----|
口口口口 |----|
口口口口 |----|
8
口口口口 |①---|
口①②口 |----|
口口①口 |②---|
口口口口 |----|
9
①口口① |①---|
②④④② |②---|
③口口③ |③---|
口口口口 |④---|
10
③④②① |①---|
口口口口 |②---|
口口口口 |③---|
口口口口 |④---|
11
口口口口 |①---|
③④②① |②---|
口口口口 |③---|
口口口口 |④---|
12
口口口口 |①---|
口口口口 |②---|
口④②口 |③---|
口③①口 |④---|
13
口口口口 |①---|
口口口口 |②---|
④口口② |③---|
③口口① |④---|
14
③④②① |①---|
口口口口 |②---|
口口口口 |③---|
口口口口 |④---|
15
口口口口 |①---|
③④②① |②---|
口口口口 |③---|
口口口口 |④---|
16
口口口口 |①---|
口口口口 |②---|
口④②口 |③---|
口③①口 |④---|
17
口口口口 |①---|
①口口① |----|
∧口口∧ |----|
口口口口 |----|
18
口口口口 |①---|
①口口① |----|
口②口口 |②---|
口口口口 |----|
19
口口口口 |①---|
口口口口 |----|
口口①② |②---|
口口口口 |----|
20
口口口口 |①---|
口口口口 |----|
口口口口 |②---|
口口②① |----|
21
口口口口 |①---|
∨口口口 |----|
|口口口 |②---|
②①口口 |----|
22
口口口口 |①---|
口口④口 |②---|
口③②口 |③---|
①口口口 |④---|
23
口口口口 |①---|
口①口口 |----|
口口口② |②---|
口口口口 |----|
24
口口口口 |①---|
口口口口 |----|
口②①口 |②---|
口口口口 |----|
25
∨口口口 |①---|
|口口口 |----|
①口口口
口口口口
口口口口
口口口口
②口口口 |②---|
口口口口 |----|
26
∨口口∨ |①---|
①口口① |----|
口口口口 |----|
口口口口 |----|
27
口口口口 |①---|
①口口① |----|
口口口口 |②---|
口③②口 |③---|
28
④口口口 |①---|
③口口口 |②---|
②口口口 |③---|
①口口口 |④---|
29
口①口口 |①---|
口口口口 |----|
口②②口 |②---|
口∧∧口 |----|
30
②③④口 |①---|
口口口口 |②---|
口①①口 |③---|
口口口口 |④---|
31
口口口① |①---|
口口口| |----|
口口口∧
口口口口
口口口②
口口口口
口口口口 |②---|
口口口口 |----|
32
口口①口 |①---|
口口|口 |----|
口口∧口
口口口口
口口②口
口口口口
口口口口 |②---|
口口口口 |----|
33
口①口口 |①---|
口|口口 |----|
口∧口口
口口口口
口②口口
口口口口
口口口口 |②---|
口口口口 |----|
34
口口口口 |①---|
口>―① |----|
口口口口 |----|
口口口口 |----|
35
口口口口 |①---|
口①口① |----|
口②口口 |②---|
口口口口 |----|
36
口口口口 |①---|
口口口口 |----|
口口口口 |----|
口①―< |----|
37
口口口口 |----|
口口口口 |----|
口口口口 |①---|
口①口① |----|
38
口口口口 |①---|
口口口口 |----|
口>―① |----|
口口口口 |----|
39
口口口口 |①---|
口②②口 |----|
口口口① |②---|
口口口口 |----|
40
口口口口 |①---|
口口口口 |----|
口①①口 |----|
口∧∧口 |----|
41
口口口口 |①---|
③口口② |----|
口①①口 |②---|
口口口口 |③---|
42
口口口口 |①---|
口口口口 |②---|
②∨∨① |③---|
口③③口 |----|
43
口口口口 |①---|
口口口④ |②---|
口口口③ |③---|
口①①② |④---|
44
口②口① |①---|
口口口口 |----|
口口口口 |②---|
口口口口 |----|
45
口口口口 |①---|
口口口口 |----|
口①①口 |----|
口∧∧口 |----|
46
口④口口 |①---|
③口口口 |②---|
②①①口 |③---|
口口口口 |④---|
47
口口①口 |①---|
口口口② |②---|
口口口③ |③---|
口口④口 |④---|
48
∨∨口口 |①---|
①①口口 |----|
口口口口
口口口口
口口口口
②②口口
口口口口 |----|
口口口口 |②---|
49
口口∨∨ |①---|
口口①① |----|
口口口口
口口口口
口口口口
口口②②
口口口口 |----|
口口口口 |②---|
50
口口口口 |①---|
口口口口 |②---|
①∨∨② |③---|
口③③口 |----|
51
④口口口 |①---|
③口口口 |②---|
②口口口 |③---|
口①①口 |④---|
52
口①②③ |①---|
口口口④ |②---|
口口口口 |③---|
口口口口 |④---|
53
口口口口 |①---|
口口口口 |----|
口口∨① |②---|
口口②口 |----|
54
口④口口 |①---|
③口口口 |②---|
②口口口 |③---|
口口①口 |④---|
55
口口①口 |①---|
口口口② |②---|
口口口③ |③---|
口口④口 |④---|
56
∨∨口口 |①---|
①①口口 |----|
口口口口
口口口口
口口口口
②②口口
口口口口 |----|
口口口口 |②---|
57
口口∨∨ |①---|
口口①① |----|
口口口口
口口口口
口口口口
口口②②
口口口口 |②---|
口口口口 |----|
58
口口口口 |①---|
口口口口 |----|
口①①口 |----|
口∧∧口 |----|
59
口口口口 |----|
口口口口 |----|
口口口口 |----|
口口口口 |----|
60
口口口口 |①---|
④③②口 |②---|
口①①口 |③---|
口口口口 |④---|
61
口口口口 |①---|
口口口口 |②---|
①②③④ |③---|
口口口口 |④---|
62
①①口口 |①---|
②口口口 |②---|
③口口口 |③---|
④口口口 |④---|
63
口口口④ |①---|
口口口③ |②---|
口口口② |③---|
口口①① |④---|
64
口口口口 |①---|
口口口口 |②---|
①口口口 |③---|
①②③④ |④---|
65
④③②① |①---|
口口口① |②---|
口口口口 |③---|
口口口口 |④---|
66
口口口口 |①---|
口>―① |----|
口口口口 |----|
口口口口 |----|
67
口口口口 |①---|
口①口① |----|
口②口口 |②---|
口口口口 |----|
68
口口口口 |①---|
口口口口 |----|
口口口口 |----|
口①―< |----|
69
口口口口 |----|
口口口口 |----|
口口口口 |①---|
口①口口 |----|
70
口口口口 |①---|
口口口口 |----|
口>―① |----|
口口口口 |----|
71
口口口口 |①---|
口②②口 |----|
口口口① |②---|
口口口口 |----|
72
口口口口 |①---|
口口口口 |----|
口①①口 |----|
口∧∧口 |----|
73
口口口口 |①---|
③口口② |----|
口①①口 |②---|
口口口口 |③---|
74
口口口口 |①---|
口口口口 |②---|
②∨∨① |③---|
口③③口 |----|
75
口口口口 |①---|
口口口④ |②---|
口口口③ |③---|
口①①② |④---|
76
口②口① |①---|
口口口口 |----|
口口口口 |②---|
口口口口 |----|
77
口口口口 |①---|
口口口口 |----|
口①①口 |----|
口∧∧口 |----|
78
口④口口 |①---|
③口口口 |②---|
②①①口 |③---|
口口口口 |④---|
79
口口①口 |①---|
口口口② |②---|
口口口③ |③---|
口口④口 |④---|
80
∨∨口口 |①---|
①①口口 |----|
口口口口
口口口口
口口口口
②②口口
口口口口 |----|
口口口口 |②---|
81
口口∨∨ |①---|
口口①① |----|
口口口口
口口口口
口口口口
口口②②
口口口口 |----|
口口口口 |②---|
82
口口口口 |①---|
口口口口 |②---|
①∨∨② |③---|
口③③口 |----|
83
④口口口 |①---|
③口口口 |②---|
②口口口 |③---|
口①①口 |④---|
84
口①②③ |①---|
口口口④ |②---|
口口口口 |③---|
口口口口 |④---|
85
口口口口 |①---|
口口口口 |----|
口口∨① |②---|
口口②口 |----|
86
口④口口 |①---|
③口口口 |②---|
②口口口 |③---|
口口①口 |④---|
87
口口①口 |①---|
口口口② |②---|
口口口③ |③---|
口口④口 |④---|
88
∨∨口口 |①---|
①①口口 |----|
口口口口
口口口口
口口口口
②②口口
口口口口 |----|
口口口口 |②---|
89
口口∨∨ |①---|
口口①① |----|
口口口口
口口口口
口口口口
口口②②
口口口口 |②---|
口口口口 |----|
90
口口口口 |①---|
口口口口 |----|
口①①口 |----|
口∧∧口 |----|
91
口口口口 |----|
口口口口 |----|
口口口口 |----|
口口口口 |----|
92
口口口口 |①---|
④③②口 |②---|
口①①口 |③---|
口口口口 |④---|
93
口口口口 |①---|
口口口口 |②---|
①②③④ |③---|
口口口口 |④---|
94
①①口口 |①---|
②口口口 |②---|
③口口口 |③---|
④口口口 |④---|
95
口口口④ |①---|
口口口③ |②---|
口口口② |③---|
口口①① |④---|
96
口口口口 |①---|
口口口口 |②---|
①口口口 |③---|
①②③④ |④---|
97
口口口口 |①---|
③③④④ |②---|
①①②② |③---|
口口口口 |④---|
98
①<>① |①---|
口口口口 |----|
口口口口 |----|
口口口口 |----|
99
口口口口 |----|
口口口口 |----|
口口口口 |----|
口口口口 |----|
100
①口口① |①---|
口②口口 |----|
口口口口 |②---|
口口口口 |----|
101
口口口口 |①---|
口口口口 |----|
口口①口 |②---|
口②口口 |----|
不確定度: 0