トリカゴノ鳳凰 [2]
L.E.D. Vs. 幽閉サテライト
ADVANCED
Level: 8
BPM: 185
Notes: 585
1
口口口口 |----|
口口口口 |----|
口口口口 |----|
口口口口 |----|
2
⑥口口口 |①-②-|
口口口口 |③---|
口口⑤④ |④-⑤-|
①②③口 |--⑥-|
3
口④口③ |--①-|
口口口口 |②---|
①②口口 |③---|
口口口口 |--④-|
4
④口⑧口 |①-②-|
口⑦口③ |③-④-|
②口⑥口 |⑤-⑥-|
口⑤口① |⑦-⑧-|
5
口口口口 |①-②-|
口口口③ |--③-|
口②口④ |--④-|
口口①⑤ |--⑤-|
6
⑥口口口 |①-②-|
口口口口 |③---|
口口⑤④ |④-⑤-|
①②③口 |--⑥-|
7
口④口③ |--①-|
口口口口 |②---|
①②口口 |③---|
口口口口 |--④-|
8
④口⑧口 |①-②-|
口⑦口③ |③-④-|
②口⑥口 |⑤-⑥-|
口⑤口① |⑦-⑧-|
9
口口口口 |①-②-|
⑤口口⑧ |③-④-|
⑦④口③ |⑤-⑥-|
①口②⑥ |⑦-⑧-|
10
①――< |①---|
口口口口 |----|
口口口口 |----|
口口口口 |----|
11
①口口口 |①---|
口>①口 |----|
口口口口
口口口口
口口口口
口口②口
口②<口 |②---|
口口口口 |----|
12
口口口口 |①---|
口口口口 |----|
口①口口 |----|
>――① |----|
13
口口口口 |----|
口③口④ |----|
口②口口 |①-②-|
口口口① |③-④-|
14
>――① |①---|
口口口口 |----|
口口口口 |----|
口口口口 |----|
15
口口口① |①---|
口①<口 |----|
口口口口
口口口口
口口口口
口②口口
口③②口 |②---|
口口口口 |③---|
16
口口口口 |①---|
口口口口 |----|
口口口口 |----|
>――① |----|
17
口口口口 |①---|
①――< |----|
①――< |----|
口口口① |----|
18
⑤③②口 |①-②-|
①口④⑧ |③-④-|
①⑦口⑧ |⑤-⑥-|
口口⑥口 |⑦-⑧-|
19
口口口口 |--①-|
③④⑤口 |②-③-|
③⑥②口 |--④-|
口①口口 |⑤-⑥-|
20
④③③④ |①---|
口口口⑤ |②-③-|
口口②口 |--④-|
①口口① |--⑤-|
21
口口口口 |①-②-|
口口口口 |③-④-|
①③②口 |----|
>――④ |----|
22
②口口口 |①---|
∧口口口 |②---|
口口口口
口口口①
③③口口
口∧口口
口口口口 |③---|
口口口口
口④④口
口口∧口
口口口口
口口口口 |④---|
23
口口①① |①---|
口口口∧
口口口口
口口口口
口口口②
口口口口 |②-③-|
②③⑤口 |--④-|
口④④口 |--⑤-|
24
②①①③ |①---|
①口口① |②-③-|
口口口口
口口口口
口⑤⑤口
口口口口
口口口④ |--④-|
口口口口 |--⑤-|
25
口口口口 |①-②-|
口口①口 |----|
口②口口
口∧口口
口口口④
口口口⑤
口③口⑥ |③-④-|
口口口口 |⑤-⑥-|
26
口口口口 |①---|
口口口口 |----|
口口口口 |----|
>――① |----|
27
口口④口 |①-②-|
⑧③口⑥ |③-④-|
②⑦⑤口 |⑤-⑥-|
口口口① |⑦-⑧-|
28
②⑤口③ |①---|
口口口口 |②-③-|
口④④口 |--④-|
口①①口 |--⑤-|
29
口口①口 |①-②-|
∨②③∨ |③-④-|
|口口| |----|
④口口④ |----|
30
②口口口 |①---|
∧口口口 |②---|
口口口口
①口口①
③③口口
口∧口口
口口口口 |③---|
口口口口
口④④口
口口∧口
口口口口
口口口口 |④---|
31
口口①① |①---|
口口口| |----|
口口口∧
口口口口
口口口②
口口口口
口②口口 |②---|
口④③口 |③-④-|
32
口口口口 |①---|
口>―① |----|
口口口口
口口口口
口③口口
②口④②
口口口口 |②---|
口口口口 |③-④-|
33
口口口口 |①-②-|
口①口口 |----|
口口②口
口口∧口
④口口⑤
口⑥口口
口口③口 |③-④-|
口口口口 |⑤-⑥-|
34
口④⑤口 |①-②-|
③口①⑥ |③-④-|
②口口⑦ |⑤-⑥-|
口口⑧口 |⑦-⑧-|
35
口④⑤口 |①-②-|
③口口⑥ |③-④-|
②①口⑦ |⑤-⑥-|
口①⑧口 |⑦-⑧-|
36
口④⑤口 |①-②-|
③口口⑥ |③-④-|
②①口⑦ |⑤-⑥-|
口①⑧口 |⑦-⑧-|
37
口④⑤口 |①-②-|
③口口⑥ |③-④-|
②口口⑦ |⑤-⑥-|
口①⑧口 |⑦-⑧-|
38
⑦口口⑧ |①-②-|
口③④口 |③-④-|
口①②口 |⑤-⑥-|
⑤口口⑥ |⑦-⑧-|
39
口口口口 |①-②-|
③⑤⑥② |③-④-|
口⑦⑧口 |⑤-⑥-|
口①④口 |⑦-⑧-|
40
口④⑤口 |①-②-|
③口口⑥ |③-④-|
②口口⑦ |⑤-⑥-|
口①⑧口 |⑦-⑧-|
41
③口口② |①-②-|
⑥口口⑤ |③-④-|
④口口口 |⑤-⑥-|
⑦①口⑧ |⑦-⑧-|
42
口①①口 |①---|
口∨∨口 |②-③-|
②||③ |④---|
口④④口 |----|
43
②口口口 |①---|
∧口口口 |②---|
口口口口
口①①口
③③口口
口∧口口
口口口口 |③---|
口口口口
口④④口
口口∧口
口口口口
口口口口 |④---|
44
口口①① |①---|
口口口∧
口口口口
口口口口
口口口②
口④⑤口 |②-③-|
口②③口 |--④-|
口口口口 |⑤---|
45
口口口口 |①---|
∨口口∨ |----|
|口口| |----|
①口口① |----|
46
②口口口 |①---|
∧口口口 |②---|
口口口口
①口口①
③③口口
口∧口口
口口口口 |③---|
口口口口
口④④口
口口∧口
口口口口
口口口口 |④---|
47
口口①① |①---|
口口口∧
口口口口
口口口口
口口口②
口口口口 |②---|
∨口口口
②口口口
口口口口
口口口口
口∨口口 |③---|
③③口口
口口口口
口口口口
口口∨口
口④④口 |④---|
48
口口口口 |①---|
口口口∨ |----|
口口口|
口口①①
口②③口
口口口口
口口口口 |----|
口口口② |②-③-|
49
口口口口 |①---|
口口口口 |----|
口①①口
口∧∧口
口口口口
口口口口
口②②口 |----|
口口口口 |②---|
50
口①②口 |①-②-|
口口口口 |③-④-|
③∨∨④ |⑤---|
口⑤⑤口 |----|
51
②口口③ |①-②-|
口口④口 |③-④-|
口口口口
口①①口
口⑦口口
口口口⑥
⑤口口口 |⑤-⑥-|
口口⑧口 |⑦-⑧-|
52
⑥⑦④⑤ |①-②-|
①②③⑧ |③-④-|
⑧③②① |⑤-⑥-|
⑤④⑦⑥ |⑦-⑧-|
53
口口∨口 |①---|
②①③口 |②-③-|
口③①② |----|
口∧口口 |----|
54
②口口口 |①---|
∧口①口 |②---|
口①口口
口口口口
③③口口
口∧口口
口口口口 |③---|
口口口口
口④④口
口口∧口
口口口口
口口口口 |④---|
55
口口①① |①---|
口口口∧
口口口口
口口口口
口口口②
口口口口 |②---|
∨口口口
②口口口
口口口口
口口口口
口∨口口 |③---|
③③口口
口口口口
口⑤口④
口口口口
口④口口 |④-⑤-|
56
口口口口 |①---|
口口口口 |----|
口>―①
口口口口
口口口口
②口③口
口口口② |----|
口口口口 |②-③-|
57
口口口口 |①---|
口口口口 |----|
①―<口
口口口口
口口口口
口③③口
②口口② |--②-|
口口口口 |--③-|
58
口口口口 |①---|
∨口口∨ |----|
|口口| |----|
①口口① |----|
59
口口口口 |----|
口口口口 |----|
口口口口 |----|
口口口口 |----|
60
口口口口 |----|
口口口口 |----|
口口口口 |①---|
①口口① |----|
61
口口口口 |①---|
①②③④ |②---|
①口口口 |③---|
口口口口 |④---|
62
口口口口 |①---|
口口口口 |②---|
口口①口 |③---|
④③②① |④---|
63
口口口口 |①---|
④③②① |②---|
口口①口 |③---|
口口口口 |④---|
64
口口口口 |①---|
口口口口 |②---|
①②③④ |③---|
口①口口 |④---|
65
①③③② |①---|
④①②④ |②---|
口口口口 |③---|
口口口口 |④---|
66
口口口口 |①---|
口口口口 |----|
>――① |----|
>――① |----|
67
①<口口 |①---|
①<口口 |----|
口口口①
口口口①
②口>②
②口>②
口口口口 |②---|
口口口口 |----|
68
口口口① |①---|
口口口① |----|
①――< |----|
①――< |----|
69
③口④② |----|
③口④② |----|
①口口口 |①-②-|
①口口口 |③-④-|
70
口口口口 |①---|
口口口口 |----|
口①<口 |----|
口①<口 |----|
71
口>①口 |①---|
口>①口
口①口口
口①口口
②口②口
②口②口 |--②-|
口口口③ |----|
口口口③ |③---|
72
口>―① |①---|
口口口口 |----|
口口口口 |----|
①―<口 |----|
73
口口口① |①-②-|
⑦口②⑧ |③-④-|
口③④口 |⑤-⑥-|
①⑤⑥口 |⑦-⑧-|
74
口①①口 |①---|
口∨∨口 |②-③-|
②||③ |④---|
口④④口 |----|
75
②口口口 |①---|
∧口口口 |②---|
口口口口
口①①口
③③口口
口∧口口
口口口口 |③---|
口口口口
口④④口
口口∧口
口口口口
口口口口 |④---|
76
口口①① |①---|
口口口∧
口口口口
口口口口
口口口②
口④⑤口 |②-③-|
口②③口 |--④-|
口口口口 |⑤---|
77
口口口口 |①---|
∨口口∨ |----|
|口口| |----|
①口口① |----|
78
②口口口 |①---|
∧口口口 |②---|
口口口口
①口口①
③③口口
口∧口口
口口口口 |③---|
口口口口
口④④口
口口∧口
口口口口
口口口口 |④---|
79
口口①① |①---|
口口口∧
口口口口
口口口口
口口口②
口口口口 |②---|
∨口口口
②口口口
口口口口
口口口口
口∨口口 |③---|
③③口口
口口口口
口口口口
口口∨口
口④④口 |④---|
80
口口口口 |①---|
口口口∨ |----|
口口口|
口口①①
口②③口
口口口口
口口口口 |----|
口口口② |②-③-|
81
口口口口 |①---|
口口口口 |----|
口①①口
口∧∧口
口口口口
口口口口
口②②口 |----|
口口口口 |②---|
82
口①②口 |①-②-|
口口口口 |③-④-|
③∨∨④ |⑤---|
口⑤⑤口 |----|
83
②口口③ |①-②-|
口口④口 |③-④-|
口口口口
口①①口
口⑦口口
口口口⑥
⑤口口口 |⑤-⑥-|
口口⑧口 |⑦-⑧-|
84
⑥⑦④⑤ |①-②-|
①②③⑧ |③-④-|
⑧③②① |⑤-⑥-|
⑤④⑦⑥ |⑦-⑧-|
85
口口∨口 |①---|
②①③口 |②-③-|
口③①② |----|
口∧口口 |----|
86
②口口口 |①---|
∧口①口 |②---|
口①口口
口口口口
③③口口
口∧口口
口口口口 |③---|
口口口口
口④④口
口口∧口
口口口口
口口口口 |④---|
87
口口①① |①---|
口口口∧
口口口口
口口口口
口口口②
口口口口 |②---|
∨口口口
②口口口
口口口口
口口口口
口∨口口 |③---|
③③口口
口口口口
口⑤口④
口口口口
口④口口 |④-⑤-|
88
口口口口 |①---|
口口口口 |----|
口>―①
口口口口
口口口口
②口③口
口口口② |----|
口口口口 |②-③-|
89
口口口口 |①---|
口口口口 |----|
①―<口
口口口口
口口口口
口③③口
②口口② |--②-|
口口口口 |--③-|
90
口口口口 |①---|
∨口口∨ |----|
|口口| |----|
①口口① |----|
91
口口口口 |----|
口口口口 |----|
口口口口 |----|
口口口口 |----|
92
口口口口 |----|
口口口口 |----|
口口口口 |①---|
①口口① |----|
93
口口口口 |①---|
①②③④ |②---|
①口口口 |③---|
口口口口 |④---|
94
口口口口 |①---|
口口口口 |②---|
口口①口 |③---|
④③②① |④---|
95
口口口口 |①---|
④③②① |②---|
口口①口 |③---|
口口口口 |④---|
96
口口口口 |①---|
口口口口 |②---|
①②③④ |③---|
口①口口 |④---|
97
①③③② |①---|
④①②④ |②---|
口口口口 |③---|
口口口口 |④---|
98
⑥口口口 |①-②-|
口口口口 |③---|
口口⑤④ |④-⑤-|
①②③口 |--⑥-|
99
口④口③ |--①-|
口口口口 |②---|
①②口口 |③---|
口口口口 |--④-|
100
⑤口口口 |--①-|
口口口口 |②---|
口口④③ |③-④-|
①②口口 |--⑤-|
101
④口口④ |--①-|
口口①口 |②---|
口②口口 |③---|
③口口③ |--④-|
不確定度: 0