robin [2]
S-C-U
EXTREME
Level: 9
BPM: 190
Notes: 597
1
口口口口 |----|
口口口口 |----|
口口口口 |----|
口口口口 |----|
2
①<口口 |①---|
口口口口
口口口口
口口口口
②口>③
口口口口 |--②-|
口口口口 |----|
口口口② |③---|
3
④①口① |--①-|
口口口口 |--②-|
口③②口 |③---|
口口口口 |④---|
4
口口口口 |①-②-|
①―<口 |③-④-|
口④口② |⑤---|
⑤口③⑥ |--⑥-|
5
口口口口 |①-②-|
④口口口 |③---|
③口①口 |----|
口②口口 |④---|
6
口口>① |①---|
口口口口
口口口口
口口口口
③<口②
口口口口 |--②-|
口口口口 |----|
②口口口 |③---|
7
①口①④ |--①-|
口口口口 |--②-|
口②③口 |③---|
口口口口 |④---|
8
口口口口 |①-②-|
口>―① |③-④-|
②口④口 |⑤---|
⑥③口⑤ |--⑥-|
9
口口口口 |①-②-|
口口口④ |③---|
口①口③ |----|
口口②口 |④---|
10
口①口口 |①-②-|
口⑤②口 |③-④-|
口⑥③口 |--⑤-|
口④口口 |⑥---|
11
口口③口 |①-②-|
口口口① |--③-|
口口口②
口口口口
口口口口
口口口口
口④口口 |--④-|
口口口口
口口口口
口口>⑤
⑤<口口
口口口口 |--⑤-|
12
口口口口 |----|
口口口① |----|
①口口口 |--①-|
口口口口 |----|
13
口口口口 |①---|
①<口口 |----|
口口>①
口口口口
口口口口
②口口口
口口口② |--②-|
口口口口 |----|
14
口口①口 |①-②-|
口②⑤口 |③-④-|
口③⑥口 |--⑤-|
口口④口 |⑥---|
15
口③>⑤ |①-②-|
①口口口 |--③-|
②口④口 |--④-|
口口口口 |--⑤-|
16
①口口① |----|
∧口口口 |①---|
口口口口
口口口口
②口口口
口口口口
口口口口 |--②-|
②<口口 |----|
17
口口口口 |①---|
口口口口 |----|
口口口∨
①口口①
口口口口
口口口口
口口口口 |----|
口口口② |②---|
18
①口口① |①---|
口口口口 |②---|
口口口口
口②②口
⑤口口⑤
口④④口
③口口③ |③---|
口口口口 |④-⑤-|
19
口③③口 |--①-|
①口口② |②---|
④口口④ |③---|
口①②口 |④---|
20
①③口② |①---|
口①②口 |②---|
口口口④ |③---|
⑤⑥口口 |④-⑤⑥|
21
口口口口 |①-②-|
口口③⑥ |③-④-|
②④口口 |--⑤-|
口口①⑤ |--⑥-|
22
①口口① |①---|
口口口口 |②---|
口口口口
口②②口
⑤口口⑤
口④④口
③口口③ |③---|
口口口口 |④-⑤-|
23
口口口口 |--①-|
①口口② |②---|
口③③口 |③---|
④①②④ |④---|
24
∨①口口 |①---|
①∧口口
口口口口
口口口口
口②口口
②口口口 |--②-|
口口∨②
口口②∧
口口口口
口口口口
③∨口③ |----|
∧③③口 |③---|
25
口口①∨ |--①-|
口口∧① |----|
①口口口
口①口口
口口②口
口③口②
口口②口 |②---|
口口口口 |③---|
26
①口口① |①---|
口口口口 |②---|
口口口口
口②②口
⑤口口⑤
口④④口
③口口③ |③---|
口口口口 |④-⑤-|
27
口③③口 |--①-|
①口口② |②---|
④口口④ |③---|
口①②口 |④---|
28
①③口② |①---|
口①②口 |②---|
口口口④ |③---|
⑤⑥口口 |④-⑤⑥|
29
口口口口 |①-②-|
口口③⑥ |③-④-|
②④口口 |--⑤-|
口口①⑤ |--⑥-|
30
⑤①①⑤ |①---|
口④④口 |②---|
③口口③ |③---|
口②②口 |④-⑤-|
31
口口口口 |--①-|
①口口② |②---|
口③③口 |③---|
④①②④ |④---|
32
∨①口口 |①---|
①∧口口
口口口口
口口口口
口②口口
②口口口 |--②-|
口口∨②
口口②∧
口口口口
口口口口
③∨口③ |----|
∧③③口 |③---|
33
口口①∨ |--①-|
口口∧① |----|
①口口口
口①口口
口口②口
口口口②
口口③口 |②---|
②口口口 |③---|
34
口①口① |①---|
②②③③ |②-③-|
④口>⑤ |--④-|
口④口口 |--⑤-|
35
口口①口 |①---|
②③口口 |②-③-|
口④口⑤ |--④-|
⑥口口口 |⑤-⑥-|
36
口口①① |①---|
②②③③ |②-③-|
⑤<④口 |--④-|
口口口④ |--⑤-|
37
口①口口 |①---|
口口口② |②-③-|
⑤口口③ |--④-|
口④⑥口 |⑤-⑥-|
38
①①口口 |①---|
③③②② |②-③-|
④口>⑤ |--④-|
口④口口 |--⑤-|
39
②口①口 |①---|
⑥③口⑥ |②-③-|
④⑤口⑤ |--④-|
口口口口 |⑤-⑥-|
40
口①①口 |①---|
口②②口 |②-③-|
④口口④ |--④-|
⑤③③⑤ |⑤---|
41
口①①口 |①-②-|
③②②③ |--③-|
口口⑥口 |--④-|
④⑤口口 |⑤-⑥-|
42
口口①① |①---|
②②③③ |②-③-|
④口>⑤ |--④-|
口④口口 |--⑤-|
43
口口①口 |①---|
②③口口 |②-③-|
口④口⑤ |--④-|
⑥口口口 |⑤-⑥-|
44
①①口口 |①---|
②②③③ |②-③-|
⑤<口口 |--④-|
口④口④ |--⑤-|
45
口①口口 |①---|
口口口② |②-③-|
⑤口口③ |--④-|
口④⑥口 |⑤-⑥-|
46
①①口口 |①---|
②②③③ |②-③-|
④口>⑤ |--④-|
口④口口 |--⑤-|
47
②口①口 |①---|
口③⑥口 |②-③-|
口⑤口⑤ |--④-|
④口口口 |⑤-⑥-|
48
③③④④ |①-②-|
①⑤⑥② |--③-|
⑤口口⑥ |④---|
口①②口 |⑤-⑥-|
49
③③④④ |--①-|
①口口② |②---|
口⑤⑥口 |③-④-|
⑤①②⑥ |⑤-⑥-|
50
口口口口 |----|
口口口口 |----|
口口口口 |----|
口口口口 |----|
51
②②口口 |①---|
①口口① |②-③-|
口口口口
口③口③
口口口口
⑤口口⑤
④口④口 |--④-|
口口口口 |--⑤-|
52
⑤⑤①① |--①-|
口口④口 |②-③-|
口③口③ |--④-|
②口②口 |--⑤-|
53
口口③口 |①-②-|
④口口③ |--③-|
②口②⑤ |--④-|
⑥①口① |⑤-⑥-|
54
⑦口口① |--①-|
口⑥②口 |②-③-|
口③⑤口 |④-⑤-|
口口口④ |⑥-⑦-|
55
口①①⑤ |----|
口口④口 |①---|
口③口口 |②-③-|
②口口口 |④-⑤-|
56
⑤①①口 |--①-|
口④口口 |--②-|
口口③口 |③-④-|
口口口② |⑤---|
57
口④①⑤ |①---|
③口②口 |②-③-|
④口⑤① |--④-|
口③口口 |--⑤-|
58
口口③口 |--①-|
口④⑤口 |②-③-|
④口口② |--④-|
口口⑤① |⑤---|
59
②②口口 |①---|
①口口① |②-③-|
口口口口
口③口③
口口口口
⑤口口⑤
④口④口 |--④-|
口口口口 |--⑤-|
60
⑤⑤①① |--①-|
口口④口 |②-③-|
口③口③ |--④-|
②口②口 |--⑤-|
61
口口③口 |①-②-|
④口口③ |--③-|
②口②⑤ |--④-|
⑥①口① |⑤-⑥-|
62
⑦口口① |--①-|
口⑥②口 |②-③-|
口③⑤口 |④-⑤-|
口口口④ |⑥-⑦-|
63
口①①⑤ |----|
口口④口 |①---|
口③口口 |②-③-|
②口口口 |④-⑤-|
64
⑤①①口 |--①-|
口④口口 |--②-|
口口③口 |③-④-|
口口口② |⑤---|
65
口④①⑤ |①---|
③口②口 |②-③-|
④口⑤① |--④-|
口③口口 |--⑤-|
66
①口③口 |--①-|
⑤⑤⑤口 |②-③-|
口口口② |④---|
④④口① |⑤---|
67
②>―① |①---|
③口口口 |----|
口口口口 |----|
口口口口 |--②③|
68
口口口⑤ |①--②|
口④⑤口 |--③-|
①⑥③口 |④--⑤|
口②口口 |--⑥-|
69
口口口口 |①---|
口口口口 |----|
口口口口 |----|
口口①口 |----|
70
口口口① |①--②|
口②⑤口 |--③-|
口⑥③口 |④--⑤|
口④口口 |--⑥-|
71
④口口③ |①---|
②口口口 |----|
②口口口 |②-③-|
①口口① |--④-|
72
口口口口 |①--②|
④口口① |--③-|
④②⑤① |④-⑤-|
⑥口口③ |--⑥-|
73
口口口口 |①---|
③⑤④① |②---|
③②口① |③-④-|
口口口口 |--⑤-|
74
口④口口 |①--②|
④口⑤① |--③-|
口⑤②① |④---|
③口口口 |⑤---|
75
③⑤口口 |①---|
口口口口 |②-③-|
口口②④ |--④-|
口>―① |⑤---|
76
口⑤口① |①-②-|
口口②口 |--③-|
⑥③口口 |④-⑤-|
口口口④ |--⑥-|
77
口口口① |①-②-|
口④口| |③-④-|
口口③∧
口②口口
口口⑤⑥
口口口口
口口口口 |⑤-⑥-|
口口⑦口 |--⑦-|
78
口③口口 |①-②-|
∨口②口 |③---|
|①口口
①口口口
口口口口
口口口口
口口口口 |--④-|
④口口口 |----|
79
⑥⑧⑤⑦ |①-②-|
③④①③ |③-④-|
①②②④ |⑤-⑥-|
⑤⑦⑥⑧ |⑦-⑧-|
80
⑥⑧⑤⑦ |①-②-|
③⑤①② |③-④-|
①②④③ |⑤-⑥-|
④⑦⑥⑧ |⑦-⑧-|
81
口口口口 |①②③④|
③口②⑥ |⑤⑥⑦⑧|
①⑤⑧④
⑦口口口
⑬口⑩⑭
口⑨口口
⑮口口口 |⑨⑩⑪⑫|
口⑪⑫⑯ |⑬⑭⑮⑯|
82
口①口口 |①-②-|
①口②口 |③---|
口③口② |----|
③口口口 |----|
不確定度: 0