Love♥km [2]
dj TAKA feat. REN

ADVANCED

Level: 7
BPM: 184
Notes: 399

1
口口口口 |----|
口口口口 |----|
口口口口 |----|
口口口口 |----|
2
口口口口 |①---|
口④口③ |②---|
口②③① |③---|
口口①口 |④---|
3
口②口① |①---|
口口①⑤ |②---|
口④口③ |③-④-|
口口③口 |--⑤-|
4
口口口口 |①---|
③口④口 |②---|
①③②口 |③---|
口①口口 |④---|
5
①口②口 |①---|
⑤①口口 |②---|
③口④口 |③-④-|
口③口口 |--⑤-|
6
口口口口 |①---|
口④口③ |②---|
口②③① |③---|
口口①口 |④---|
7
口②口① |①---|
口口①⑤ |②---|
口④口③ |③-④-|
口口③口 |--⑤-|
8
口口口口 |①---|
③口④口 |②---|
①③②口 |③---|
口①口口 |④---|
9
①②③④ |--①-|
口口口⑤ |②-③-|
口口口⑥ |④-⑤-|
口口口⑦ |⑥-⑦-|
10
口口口口 |①---|
①口口口 |----|
①口口口 |----|
①①口口 |----|
11
口口①口 |①---|
口①口① |----|
口口①口 |----|
口口口口 |----|
12
口口口口 |①---|
口①口① |----|
口①口① |----|
口口①口 |----|
13
①①口口 |①-②-|
①②口口 |③---|
①③口口 |----|
口口口口 |----|
14
口①口① |①---|
口口①口 |----|
口口口口 |----|
口口口口 |----|
15
①口①口 |①---|
①①口口 |----|
①口①口 |----|
口口口口 |----|
16
口口口口 |①---|
①②口口 |②---|
口③口口 |③---|
口④口口 |④---|
17
①口口② |①-②-|
口③④口 |③-④-|
⑤口口⑥ |⑤-⑥-|
口⑦口口 |⑦---|
18
① |①--②|
口 |----|
口口口口
口口口口


口口口口
口口口口 |-③--|
口口口口 |----|
19
口口口口 |①---|
|----|



口口口口
口口口口
口口口口 |--②-|
|----|
20
口口 |①---|
|----|
口口
口口

口口
口口口
口口口口 |--②-|
口口口口 |----|
21
口口口 |①---|
口口口 |----|

口口

口口口口
口口口口
口口口 |--②-|
口口口 |----|
22
口口 |①---|
口口 |----|

口口

口口口口
口口口口
口口口 |--②-|
口口 |----|
23
口口口 |①---|
|----|
口口
口口

口口
口口口
口口口口 |--②-|
口口口口 |----|
24
口口口口 |①---|
口 |----|

口口口口

口口口口
口口口
口口口 |--②-|
口口口口 |----|
25
口口 |①---|
口口 |----|
口口
口口

口口口
口口口口
口口口口 |--②-|
口口口 |----|
26
口口 |①---|
|----|

口口

口口
口口口
口口口 |----|
口口口 |②---|
27
②口口① |①---|
口⑤④口 |②---|
口口口口 |③---|
③口口③ |④-⑤-|
28
口口口口 |--①-|
①⑤④① |--②-|
口②③口 |③---|
口口口口 |④-⑤-|
29
②口口① |①---|
口④⑤口 |②---|
口口口口 |③---|
③口口③ |④-⑤-|
30
口口口口 |--①-|
①④口① |--②-|
口②③口 |③---|
口口口口 |④---|
31
②口口① |①---|
口⑤④口 |②---|
口口口口 |③---|
③口口③ |④-⑤-|
32
口口口口 |--①-|
①口口① |--②-|
⑤③②④ |③---|
口口口口 |④-⑤-|
33
口口口口 |①---|
③②③口 |②---|
口口④口 |③---|
①口①口 |④---|
34
口口口口 |①---|
口口④口 |②---|
口①口① |③---|
③②③口 |④---|
35
口口口口 |----|
口口口口 |----|
口口③口 |--①-|
口②①口 |②-③-|
36
④口口⑤ |①---|
②③③② |②---|
口①口口 |③---|
口口口口 |④-⑤-|
37
②③④口 |----|
①口口① |--①-|
口口口口 |--②-|
口口口口 |③-④-|
38
口口口口 |①-②-|
口①口口 |③-④-|
②③④口
口口口口

口口口⑥
口⑦口⑤
口口口口 |⑤---|
口口口口 |⑥-⑦-|
39
口④口口 |①---|
⑤口口口 |②-③-|
口口口① |----|
②③③② |④-⑤-|
40
口口④口 |①---|
口口①⑤ |②-③-|
②②③③ |----|
口口口口 |④-⑤-|
41
口口口口 |①---|
口①口口 |②-③-|
③③②②
口口口口

口口口口
④⑤口口
口口口口 |----|
口口口口 |④-⑤-|
42
⑥②④口 |①---|
口口①口 |②-③-|
⑦③⑤口 |④-⑤-|
口口口口 |⑥-⑦-|
43
口口口口 |①---|
口口
口口口口
口口口口

口口口口
口口口 |②---|

口口口口

④⑤口⑥
口口口口
口口 |③-④-|
口口③③ |⑤-⑥-|
44
⑤口①⑥ |①-②-|
③④④② |③---|
口口口口 |④---|
口口口口 |⑤-⑥-|
45
口口口口 |----|
①口③① |--①-|
口②口口 |--②-|
口口口④ |③-④-|
46
口口口口 |①-②-|
⑥①口⑦ |③-④-|
③⑥⑦⑤ |⑤---|
②口④口 |⑥-⑦-|
47
③④口口 |----|
③①②口 |①-②-|
①口口② |----|
口口口口 |③-④-|
48
口口①⑤ |①---|
口②口口 |②-③-|
口口③口 |----|
④口口口 |④-⑤-|
49
口口口口 |①---|
口③③② |②-③-|
①③③口 |----|
口④口口 |④---|
50
②③口口 |①---|
⑥⑦⑤④ |②-③-|
①口口口 |④-⑤-|
口口口口 |⑥-⑦-|
51
口口口口 |①---|
口口口口
口口
口口

口口口口
口口口口 |②---|
口口
口口

口口口口
口口
口口口 |③---|
口口口口

口口

口口口口
口口口口 |④---|
52
|①---|
口口口 |----|
口口口 |----|
口口口 |----|
53
口 |----|
口 |①---|
口 |----|
口口口 |②---|
54
口口口口 |----|
口口口口 |----|
口 |--①-|
口口口口 |----|
55
口③口口 |----|
①口②口 |①---|
口口口口 |②---|
口口口口 |③---|
56
口口口口 |①---|
口口 |----|
口口 |----|
口口 |----|
57
口口口口 |----|
口③口口 |①---|
口口②口 |----|
口口 |②-③-|
58
口 |①---|
口口口 |----|
口口口
口口口口

口口
口口口
口口口口 |----|
口口口口 |②---|
59
口口口口 |①---|
口口口 |----|
口口口


口口口口
口口口口
口口口 |----|
口口口 |②---|
60
口 |①---|
口 |----|
口口口口 |----|
口口口口 |----|
61
口②口 |----|
口口③ |①---|
口口口口 |----|
口口口口 |②-③-|
62
口口口口 |①---|
口口口口 |----|



口口口口
口口口口
口口口 |----|
口口口 |--②-|
63
口 |----|
口口口口 |①---|
口口口口
口口口口

口口

口口口口 |②---|
口口口口

口口口口
口口

口口口口 |③---|
64
口口口口 |①---|
口口口口 |----|
口口


口口口口
口口口口
口口口口 |----|
口口口 |②---|
65
口口口口 |----|
口口口① |----|
②口口口 |----|
口口口口 |①-②-|
66
口口口 |①---|
口 |----|

口口

口口口口
口口
口口口 |----|
口口口口 |②---|
67
口口口口 |①---|
口 |----|

口口口口

口口口口
口口口
口口口 |----|
口口口口 |②---|
68
口口 |①---|
口 |----|
口 |----|
口口口 |----|
69
口口 |----|
口口口口 |----|
口口口口 |----|
口口口 |①---|
70
口口口口 |----|
口口口口 |----|
口口口口 |----|
口口口口 |----|
71
口口口口 |----|
口口口口 |----|
②①①② |--①-|
①②②① |--②-|
72
①口口① |①---|
口口口口 |----|
口口口口 |----|
口口口口 |----|
73
口口口口 |①---|
口口口口 |----|
口①①口
口①①口

口口口口
③②②③
②③③② |--②-|
口口口口 |--③-|
74
①口口① |①---|
口口口口 |----|
②口口② |②---|
口②②口 |----|
75
口口口口 |①---|
①口口① |----|
口①①口
口口口口

口口口口
③②②③
②③③② |--②-|
口口口口 |--③-|
76
|①---|
|----|
|----|
|----|
77
|----|
口口口口 |----|
口口口口 |----|
口口口口 |①---|

不確定度: 0

最終更新:2015年11月01日 02:26