FLOWER [2]
DJ YOSHITAKA

ADVANCED

Level: 8
BPM: 173
Notes: 683

1
口口口口 |----|
口口口口 |----|
口口口口 |----|
口口口口 |----|
2
②⑤⑤② |①---|
口口口口 |②---|
③口口④ |③-④-|
口①①口 |⑤---|
3
口口口口 |①-②-|
①口口② |③-④-|
口③④口 |⑤⑥⑦⑧|
⑤⑥⑦⑧ |----|
4
②②③③ |①---|
口①①口 |②-③-|
口⑥⑥口 |④-⑤-|
④④⑤⑤ |⑥---|
5
口口口口 |①---|
口口 |----|
口口
口口口口

口口口口
口②②口
口口 |----|
口口口口 |②---|
6
口口口口 |①-②-|
⑤⑥⑦口 |③-④-|
口①口口 |--⑤-|
口④③② |⑥-⑦-|
7
④⑤⑥口 |--①-|
口口口口 |②-③-|
口③②① |--④-|
口口口口 |⑤-⑥-|
8
口口口口 |--①-|
④⑤⑥口 |②-③-|
口口口口 |--④-|
口③②① |⑤-⑥-|
9
④⑤⑥口 |--①-|
口口口口 |②-③-|
口③②① |--④-|
口口口口 |⑤-⑥-|
10
口口口口 |①-②-|
口①口口 |③-④-|
口口口口
口④③②

口口口口
⑤⑥⑦口
口口口口 |--⑤-|
口口口口 |⑥-⑦-|
11
④⑤⑥口 |--①-|
口口口口 |②-③-|
口③②① |--④-|
口口口口 |⑤-⑥-|
12
⑤口口口 |①-②-|
口①⑥口 |③-④-|
口④③② |--⑤-|
|⑥-⑦-|
13
口口口口 |--①-|
口口口口

口口口

口口口口
|--②-|
口口口
口口口口


口口口
口口口口 |--③-|
口口口口


口口
口口
口口 |--④-|
14
口口口口 |----|
口口口口 |----|
口口口口 |----|
口口口口 |----|
15
口口口口 |----|
口口口口 |----|
口口口口 |----|
口口口口 |----|
16
口口口口 |----|
口①口口 |----|
口 |----|
口口 |①-②-|
17
口口口口 |--①-|
口口口口
口口



口口口口 |--②-|
口口口口
口口口

口口口

口口口口 |--③-|
口口口口

口口

口口
口口口 |--④-|
18
口口口口 |----|
口口口口 |----|
口口口口 |----|
口口口口 |----|
19
口口口口 |----|
口口口口 |----|
口口口口 |----|
口口口口 |----|
20
口口口口 |----|
口口口口 |----|
口口口口 |----|
口口口口 |----|
21
口口口口 |①---|
|----|
口口口口
口口

口口口口
口口口
|②---|
口口口口 |----|
22
口口口口 |①---|
口口口
口口
口口口

口口口口
口口 |--②-|
口口
口口

口口
口口
口口口 |----|
口 |③---|
23
口口口口 |①---|
①②口口 |②---|
③④口口 |③---|
口口口口 |④---|
24
口口口口 |①---|
①②口口 |②---|
③④口口 |③---|
口口口 |④-|

口口口口
口口口口
口口口口
|⑤-|
25
口口口口 |--①-|

口口口口
口口口


口口 |--②-|
口口口口
口口口口

口口
口口口口
|--③-|
口口口口

口口口
口口口

口口口 |--④-|
26
口口口口 |①---|
①②口口 |②---|
③④口口 |③---|
口口口口 |④---|
27
口口口口 |①---|
①②口口 |②---|
③④口口 |③---|
口口口口 |④---|
28
口口口口 |①---|
①②口口 |②---|
③④口口 |③---|
口口口口 |④---|
29
口口口 |①---|
①②口 |②---|
③④口 |③---|
口口 |④---|
30
①口口② |①---|
口口口口 |②---|
口口口口 |③---|
③口④ |④---|
31
①口口② |①---|
口口口口 |②---|
口口口口 |③---|
③口口④ |④---|
32
①口口② |①---|
口口口口 |②---|
口口口口 |③---|
③口口④ |④---|
33
①口口② |①---|
口口口口 |②---|
口口口口 |③---|
③口口④ |④---|
34
口①②口 |①-②-|
口③④口 |③-④-|
口⑤⑥口 |⑤-⑥-|
口⑦⑧口 |⑦-⑧-|
35
①口口② |①-②-|
③口口④ |③-④-|
⑤口口⑥ |⑤-⑥-|
⑦口口⑧ |⑦-⑧-|
36
①②③④ |①②③④|
⑤⑥⑦⑧ |⑤⑥⑦⑧|
⑨⑩⑪⑫ |⑨⑩⑪⑫|
口⑬⑬口 |⑬---|
37
⑥①②⑥ |①--②|
①口口② |--③-|
口③④口 |-④--|
③⑤⑤④ |⑤-⑥-|
38
口①④口 |①-②-|
⑤③②⑥ |③-④-|
口口口口 |⑤-⑥-|
⑦⑧⑨⑩ |⑦⑧⑨⑩|
39
⑦⑧⑨⑩ |①-②-|
⑤①④口 |③-④-|
口③②⑥ |⑤-⑥-|
口口口口 |⑦⑧⑨⑩|
40
口口口口 |①-②-|
口口口口 |③-④-|
⑤①④⑧ |⑤-⑥-|
⑦③②⑥ |⑦-⑧-|
41
口①②⑧ |①--②|
①口口② |--③-|
③⑥⑤口 |④⑤⑥⑦|
⑦③口④ |--⑧-|
42
口①④口 |①-②-|
⑤③②⑥ |③-④-|
口口口口 |⑤-⑥-|
⑦⑧⑨⑩ |⑦⑧⑨⑩|
43
⑦⑧⑨⑩ |①-②-|
⑤①④口 |③-④-|
口③②⑥ |⑤-⑥-|
口口口口 |⑦⑧⑨⑩|
44
口口口口 |①-②-|
口口口口 |③-④-|
⑤①④⑧ |⑤-⑥-|
⑦③②⑥ |⑦-⑧-|
45
口①②⑧ |①--②|
①口口② |--③-|
③⑥⑤口 |④⑤⑥⑦|
⑦③口④ |--⑧-|
46
口①④口 |①-②-|
⑤③②⑥ |③-④-|
口口口口 |⑤-⑥-|
⑦⑧⑨⑩ |⑦⑧⑨⑩|
47
⑦⑧⑨⑩ |①-②-|
⑤①④口 |③-④-|
口③②⑥ |⑤-⑥-|
口口口口 |⑦⑧⑨⑩|
48
口口口口 |①-②-|
口口口口 |③-④-|
⑤①④⑧ |⑤-⑥-|
⑦③②⑥ |⑦-⑧-|
49
口①②⑧ |①--②|
①口口② |--③-|
③⑥⑤口 |④⑤⑥⑦|
⑦③口④ |--⑧-|
50
口①④口 |①-②-|
⑤③②⑥ |③-④-|
口口口口 |⑤-⑥-|
⑦⑧⑨⑩ |⑦⑧⑨⑩|
51
⑦⑧⑨⑩ |①-②-|
⑤①④口 |③-④-|
口③②⑥ |⑤-⑥-|
口口口口 |⑦⑧⑨⑩|
52
口口口口 |①-②-|
口口口口 |③-④-|
⑤①④⑧ |⑤-⑥-|
⑦③②⑥ |⑦-⑧-|
53
口①②⑧ |①--②|
①口口② |--③-|
③⑥⑤口 |④⑤⑥⑦|
⑦③口④ |--⑧-|
54
⑤①②⑤ |①--②|
③①②④ |--③-|
口口口口 |-④--|
⑥③④⑥ |⑤-⑥-|
55
①② |①-②-|
③④ |③-④-|
口口 |⑤---|
口口口口

口口口口
口口口口
⑥⑥
口口口口 |⑥---|
56
⑤①②⑤ |①--②|
③①②④ |--③-|
口口口口 |-④--|
⑥③④⑥ |⑤-⑥-|
57
①② |①-②-|
③④ |③-④-|
口口 |⑤---|
口口口口

口口口口
口口口口
⑥⑥
口口口口 |⑥---|
58
⑤①②⑤ |①--②|
③①②④ |--③-|
口口口口 |-④--|
⑥③④⑥ |⑤-⑥-|
59
①② |①-②-|
③④ |③-④-|
口口 |⑤---|
口口口口

口口口口
口口口口
⑥⑥
口口口口 |⑥---|
60
⑤①②⑤ |①--②|
③①②④ |--③-|
口口口口 |-④--|
⑥③④⑥ |⑤-⑥-|
61
①② |①-②-|
③④ |③-④-|
口口 |⑤---|
口口口口

口口口口
口口口口
⑥⑥
口口口口 |⑥---|
62
口 |①---|
口 |----|
口 |----|
口 |----|
63
口口口口 |----|
口口口口 |----|
口口口口 |----|
口口口口 |----|
64
口口口口 |①---|
①口口① |----|
口口口口 |----|
口 |----|
65
口口口口 |----|
口口口口 |----|
口口口口 |----|
口口口口 |----|
66
口口口口 |----|
口口口口 |----|
口口口口 |----|
口口口口 |----|
67
口口口口 |----|
口口口口 |----|
口口口口 |----|
口口口口 |----|
68
②口口口 |①-②-|
⑥①①⑤ |③-④-|
⑧①①⑦ |⑤-⑥-|
④口口③ |⑦-⑧-|
69
②口口口 |①-②-|
⑥①①⑤ |③-④-|
⑧①①⑦ |⑤-⑥-|
④口口③ |⑦-⑧-|
70
②口口口 |①-②-|
口①①口 |③-④-|
口①①口
④口口③

口⑤⑤口
⑤口⑧⑤
口口口口 |⑤-⑥-|
口⑦⑥口 |⑦-⑧-|
71
①口③① |①--②|
口②口口 |--③-|
口口②口
③口口口

⑥口口⑥
④口口口
口口口口 |-④--|
口⑤⑤④ |⑤-⑥-|
72
口①④口 |①-②-|
口③②口 |③-④-|
⑤⑥⑦⑧ |⑤⑥⑦⑧|
⑨⑩⑪⑫ |⑨⑩⑪⑫|
73
①口口② |①-②-|
口口口口 |③-④-|
③口④口
口口口口

⑨⑩⑪⑫
⑤⑥⑦⑧
口口口口 |⑤⑥⑦⑧|
口口口口 |⑨⑩⑪⑫|
74
口口口口 |①-②-|
③口④口 |③-④-|
口口口口
①口②口

口口口口
口口口口
⑤⑥⑦⑧ |⑤⑥⑦⑧|
⑨⑩⑪⑫ |⑨⑩⑪⑫|
75
口①②⑧ |①--②|
①口口② |--③-|
③③⑤④ |④⑤⑥⑦|
⑦⑥口口 |--⑧-|
76
口①④口 |①-②-|
口③②口 |③-④-|
⑤⑥⑦⑧ |⑤⑥⑦⑧|
⑨⑩⑪⑫ |⑨⑩⑪⑫|
77
①口口② |①-②-|
口口口口 |③-④-|
③口④口
口口口口

⑨⑩⑪⑫
⑤⑥⑦⑧
口口口口 |⑤⑥⑦⑧|
口口口口 |⑨⑩⑪⑫|
78
口口口口 |①-②-|
③口④口 |③-④-|
口口口口
①口②口

口口口口
口口口口
⑤⑥⑦⑧ |⑤⑥⑦⑧|
⑨⑩⑪⑫ |⑨⑩⑪⑫|
79
口①②⑧ |①--②|
①口口② |--③-|
③③⑤④ |④⑤⑥⑦|
⑦⑥口口 |--⑧-|
80
⑤①②⑤ |①--②|
③①②④ |--③-|
口口口口 |-④--|
⑥③④⑥ |⑤-⑥-|
81
①② |①-②-|
③④ |③-④-|
口口 |⑤---|
口口口口

口口口口
口口口口
⑥⑥
口口口口 |⑥---|
82
⑤①②⑤ |①--②|
③①②④ |--③-|
口口口口 |-④--|
⑥③④⑥ |⑤-⑥-|
83
①② |①-②-|
③④ |③-④-|
口口 |⑤---|
口口口口

口口口口
口口口口
⑥⑥
口口口口 |⑥---|
84
⑤①②⑤ |①--②|
③①②④ |--③-|
口口口口 |-④--|
⑥③④⑥ |⑤-⑥-|
85
①② |①-②-|
③④ |③-④-|
口口 |⑤---|
口口口口

口口口口
口口口口
⑥⑥
口口口口 |⑥---|
86
⑤①②⑤ |①--②|
③①②④ |--③-|
口口口口 |-④--|
⑥③④⑥ |⑤-⑥-|
87
①② |①-②-|
③④ |③-④-|
口口 |⑤---|
口口口口

口口口口
口口口口
⑥⑥
口口口口 |⑥---|

不確定度: 0

最終更新:2015年10月29日 14:00