はなまるぴっぴはよいこだけ
A応P

ADVANCED

Level: 6
BPM: 172
Notes: 396

1
口口口口 |----|
口口口口 |----|
口口口口 |----|
口口口口 |----|
2
口口④口 |①---|
③口口口 |②---|
口口②口 |③---|
①口口口 |④---|
3
口①口口 |①---|
口口口② |②---|
口③口口 |③---|
口口口④ |④---|
4
④口口口 |①---|
口口③口 |②---|
②口口口 |③---|
口口①口 |④---|
5
口口口① |①---|
口②口口 |②---|
口口口③ |③---|
口④口口 |④---|
6
口口①① |①---|
②②口口 |②---|
口口③③ |③---|
④④口口 |④---|
7
④④口口 |①---|
口口③③ |②---|
②②口口 |③---|
口口①① |④---|
8
⑥⑥口口 |--①-|
口口口⑤ |②-③-|
④③②① |④-⑤-|
口口口口 |--⑥-|
9
口口①口 |--①-|
口②③口 |②-③-|
口④⑤口 |④-⑤-|
口⑥⑦口 |⑥-⑦-|
10
口口口口 |--①-|
①②③口 |②-③-|
④⑤⑥口 |④-⑤-|
⑦口口口 |⑥-⑦-|
11
口②①口 |①-②-|
口④③⑦ |③-④-|
口⑥⑤口 |⑤-⑥-|
口口口口 |--⑦-|
12
口②①口 |①-②-|
③口口⑧ |③-④-|
④口口⑦ |⑤-⑥-|
口⑤⑥口 |⑦-⑧-|
13
口②②口 |①---|
口③③口 |②-③-|
口①①口 |----|
口口口口 |----|
14
口口口口 |--①-|
①②③口 |②-③-|
④⑤⑥口 |④-⑤-|
⑦口口口 |⑥-⑦-|
15
口②①口 |①-②-|
口④③⑦ |③-④-|
口⑥⑤口 |⑤-⑥-|
口口口口 |--⑦-|
16
口②①口 |①-②-|
③口口⑧ |③-④-|
④口口⑦ |⑤-⑥-|
口⑤⑥口 |⑦-⑧-|
17
口口口口 |①---|
口口口口 |----|
口①①口 |----|
口口口口 |----|
18
口口口口 |①---|
口①①口 |----|
口口口口 |----|
口口口口 |----|
19
口口口⑤ |--①-|
口②①⑥ |②-③-|
口④③口 |④-⑤-|
口口口口 |⑥---|
20
口①②口 |①-②-|
口③④口 |③-④-|
口⑤⑥口 |⑤-⑥-|
⑦口口口 |--⑦-|
21
④口口③ |①-②-|
②口口⑤ |③-④-|
⑥口口① |⑤-⑥-|
⑧口口⑦ |⑦-⑧-|
22
④④④④ |①---|
口③②口 |②-③-|
口①①口 |--④-|
口口口口 |----|
23
口口口口 |--①-|
口①①口 |--②-|
⑤④③② |③-④-|
口口口口 |⑤---|
24
⑦口口⑦ |①-②-|
口⑥⑤口 |③-④-|
口④③口 |⑤-⑥-|
口②①口 |--⑦-|
25
口口①口 |①---|
口口②口 |②---|
口口③口 |③---|
口口④口 |④---|
26
⑦口口⑧ |①-②-|
⑤口口⑥ |③-④-|
③口口④ |⑤-⑥-|
①口口② |⑦-⑧-|
27
口口口口 |①---|
口①①口 |----|
口口口口 |----|
口口口口 |----|
28
口口口口 |----|
口口口口 |----|
口口口口 |----|
口口口口 |----|
29
①②③④ |①-②-|
⑤⑥⑦⑧ |③-④-|
口口口口 |⑤-⑥-|
口口口口 |⑦-⑧-|
30
④①①④ |①-②-|
口⑤⑤口 |--③-|
③②②③ |--④-|
口口口口 |--⑤-|
31
口⑤④口 |①-②-|
⑥口口③ |③-④-|
⑦口口② |⑤-⑥-|
口⑧①口 |⑦-⑧-|
32
⑦⑥⑤⑦ |①-②-|
口④③口 |③-④-|
口②①口 |⑤-⑥-|
口口口口 |⑦---|
33
口口口口 |①-②-|
①②③④ |③-④-|
⑤⑥⑦⑧ |⑤-⑥-|
口口口口 |⑦-⑧-|
34
口口口口 |①-②-|
④①①④ |--③-|
口⑤⑤口 |--④-|
③②②③ |--⑤-|
35
口②①口 |①-②-|
口④③口 |③-④-|
口⑧⑦口 |⑤-⑥-|
口⑥⑤口 |⑦-⑧-|
36
②⑤⑤① |①-②-|
④口口③ |③-④-|
口口口口 |⑤---|
口口口口 |----|
37
口⑥口口 |--①-|
口⑤口口 |②---|
口④②口 |③-④-|
口③①口 |⑤-⑥-|
38
②口口① |①-②-|
④口口③ |③-④-|
⑥口口⑤ |⑤-⑥-|
⑧口口⑦ |⑦-⑧-|
39
口⑧⑦口 |①-②-|
口⑥⑤口 |③-④-|
口④③口 |⑤-⑥-|
口②①口 |⑦-⑧-|
40
口口口口 |----|
口口口口 |----|
口口口口 |----|
口口口口 |----|
41
口口口口 |--①-|
①口②③ |--②-|
④⑤⑥口 |③-④-|
口口口口 |⑤-⑥-|
42
口①②口 |①-②-|
口③④口 |③-④-|
口⑤⑥口 |⑤-⑥-|
口⑦⑧口 |⑦-⑧-|
43
①口口口 |①-②-|
②口⑦口 |③-④-|
③口⑥口 |⑤---|
④⑤口口 |⑥-⑦-|
44
①口口口 |--①-|
②口⑥口 |②-③-|
③口⑤口 |④---|
④口口口 |⑤-⑥-|
45
②口口① |--①-|
④口口③ |②-③-|
⑥口口⑤ |④-⑤-|
口口口⑦ |⑥-⑦-|
46
口口口口 |①---|
口口口口 |----|
口口口口 |----|
①口口口 |----|
47
①②③④ |①-②-|
⑤⑥⑦⑧ |③-④-|
口口口口 |⑤-⑥-|
口口口口 |⑦-⑧-|
48
④①①④ |①-②-|
口⑤⑤口 |--③-|
③②②③ |--④-|
口口口口 |--⑤-|
49
口⑤④口 |①-②-|
⑥口口③ |③-④-|
⑦口口② |⑤-⑥-|
口⑧①口 |⑦-⑧-|
50
⑦⑥⑤⑦ |①-②-|
口④③口 |③-④-|
口②①口 |⑤-⑥-|
口口口口 |⑦---|
51
口口口口 |①-②-|
①②③④ |③-④-|
⑤⑥⑦⑧ |⑤-⑥-|
口口口口 |⑦-⑧-|
52
口口口口 |①-②-|
④①①④ |--③-|
口⑤⑤口 |--④-|
③②②③ |--⑤-|
53
口②①口 |①-②-|
口④③口 |③-④-|
口⑧⑦口 |⑤-⑥-|
口⑥⑤口 |⑦-⑧-|
54
②⑤⑤① |①-②-|
④口口③ |③-④-|
口口口口 |⑤---|
口口口口 |----|
55
口口④口 |①---|
③口口口 |②---|
口口②口 |③---|
①口口口 |④---|
56
口①口口 |①---|
口口口② |②---|
口③口口 |③---|
口口口④ |④---|
57
④口口口 |①---|
口口③口 |②---|
②口口口 |③---|
口口①口 |④---|
58
口口口① |①---|
口②口口 |②---|
口口口③ |③---|
口④口口 |④---|
59
口口①① |①---|
②②口口 |②---|
口口③③ |③---|
④④口口 |④---|
60
④④口口 |①---|
口口③③ |②---|
②②口口 |③---|
口口①① |④---|
61
⑥⑥口口 |--①-|
口口口⑤ |②-③-|
④③②① |④-⑤-|
口口口口 |--⑥-|
62
口口①口 |--①-|
口②③口 |②-③-|
口④⑤口 |④-⑤-|
口⑥⑦口 |⑥-⑦-|
63
口口口口 |----|
①①①① |①---|
口口口口 |----|
口口口口 |----|

不確定度:0

最終更新:2016年07月14日 12:40