天空の華
S-C-U × U1 overground
EXTREME
Level: 10
BPM: 180
Notes: 817
1
口口口口 |----|
口口口口 |----|
口口口口 |----|
口口口口 |----|
2
∨③②⑨ |①-②③|
|④⑧⑦ |④-⑤⑥|
|口⑥⑤ |-⑦⑧-|
①⑩口① |⑨-⑩-|
3
⑥⑦口∨ |①-②③|
④⑤口| |-④⑤-|
②③⑧| |⑥⑦-⑧|
①⑩⑨① |⑨-⑩-|
4
∨口③口 |①②-③|
|⑤④① |④-⑤⑥|
①⑥口②
口口口①
⑨口口口
口口口口
口口⑦口 |-⑦⑧-|
口⑩⑧口 |⑨-⑩-|
5
口②③∨ |①-②③|
口④⑤| |④⑤⑥⑦|
①⑥⑦①
口口口口
口口口口
⑧口口⑫
⑪口口口 |--⑧-|
口⑨⑩口 |⑨⑩⑪⑫|
6
∨口口② |①---|
|口口口 |②-③-|
|③口①
①口口口
口口口口
⑦口④⑧
口口口口 |④---|
口⑤⑥口 |⑤⑥⑦⑧|
7
②③③∨ |①--②|
口口口| |--③-|
口口口|
①口口①
口口口口
口口口口
④⑤⑥⑦ |---④⑤⑥|
口⑧口口 |⑦-⑧-|
8
∨口口口 |①-|
|①①口
|口口口
①口口①
⑦③③⑥ |-②|
②口口② |--③-|
口⑤④口 |--④⑤|
④⑨⑧口 |⑥⑦⑧⑨|
9
口⑥⑤口 |①②③④|
⑧②①⑦ |⑤⑥⑦⑧|
④口口③
口口口口
口口口口
口⑯⑮口
口⑩⑨口 |⑨⑩⑪⑫|
⑫⑭⑬⑪ |⑬⑭⑮⑯|
10
口口口① |①-②-|
口口口|
②口口∧
口口口口
③∨口④
口|口⑤ |③-④-|
口④⑥口 |⑤-⑥-|
口口口口
口⑧⑦口
口口|口
口⑦|口
口口∧口 |⑦-⑧-|
11
⑦⑧口口 |①-②-|
①②口口 |③-④-|
③⑥口口 |⑤-⑥-|
⑤④口口 |⑦-⑧-|
12
口口①① |①-②-|
口②口|
口口口∧
口口口口
口口口④
∨口③口 |③-④-|
|⑥⑦口 |⑤-⑥-|
④⑧⑤口 |⑦-⑧-|
13
口口④③ |①-②-|
口口②① |③-④-|
口口⑧⑦ |⑤-⑥-|
⑦口⑥⑤ |⑦-⑧-|
14
①口口口 |①-②-|
|口②口
∧口口口
口口口口
④口口口
口口口∨ |③-④-|
口③口|
口口口④
口口⑧口
⑦――<
口口口口 |⑤-⑥-|
口⑤⑥⑦ |⑦-⑧-|
15
口①口⑧ |①-②-|
口口⑤④ |③-④-|
口③②⑥ |⑤-⑥-|
口⑦口口 |⑦-⑧-|
16
口口口口 |①-②-|
①②∨口
口口|口
口口①口
口口口口
口口口∨ |③-④-|
③口口|
口口④④
⑧<口口
口口口口
口⑦⑥口 |⑤-⑥-|
⑤口口⑦ |⑦-⑧-|
17
①口口口 |①---|
①――<
口口口口
口口口口
口②③口
②口口口 |--②③|
口⑧⑨⑩ |④⑤⑥⑦|
④⑤⑥⑦ |⑧⑨⑩-|
18
②――< |①-②-|
口④口③ |③-④-|
①⑥口口 |⑤-⑥-|
口口⑤口
⑦口口口
口口⑦口
口口口口
>――⑧ |⑦-⑧-|
19
口∨口口 |①-②-|
③|口口 |③-④-|
①|②口
口④口④
口口⑤口
口口|口
口口|口 |--⑤-|
口⑤∧口
口口⑥口
口口口口
口口⑦口
⑥口口口 |--⑥⑦|
20
①④口口 |①-②③|
口⑦③⑨ |④-⑤⑥|
⑤②口⑥ |⑦-⑧⑨|
口⑧口口
口口口口
⑩口口口
口口口口
>――⑪ |⑩-⑪-|
21
口②口口 |--①-|
口口①口 |--②-|
口口口口
口口口口
口口口口
口④⑤口
口口口口 |--③-|
③口口④ |--④⑤|
22
口口口∨ |①②③-|
口口口|
口①②③
口口口口
④口口口
∨口口口 |④-⑤⑥|
|口口④ |⑦-|
⑦⑥⑤口
口口∨⑧
⑨⑩⑪口
口口口口 |⑧-|
⑧口口口 |⑨⑩⑪-|
23
∨①口口 |①-②③|
|口①口 |④-|
④③②口
口口口口
口⑨⑤⑧
⑨⑦口口 |⑤-|
⑤口口⑥ |⑥-⑦⑧|
⑧口⑥口 |--⑨-|
24
口口口口 |①--②|
口口口口
②口②口
口①口①
③口③口
|口|口 |--③-|
|口|口 |----|
∧口∧口 |----|
25
①⑤①⑥ |----|
⑨③⑩口 |①-②③|
⑪口②口 |④⑤⑥⑦|
⑦口④⑧ |⑧⑨⑩⑪|
26
②――< |①-②-|
口④口③ |③-④-|
口⑥口① |⑤-⑥-|
口口⑤口
⑦口口口
口口⑦口
口口口口
>――⑧ |⑦-⑧-|
27
口∨口口 |①-②-|
③|口口 |③-④-|
①|②口
口④口④
口口⑤口
口口|口
口口|口 |--⑤-|
口⑤∧口
口口⑥口
口口口口
口口⑦口
⑥口口口 |--⑥⑦|
28
①④口口 |①-②③|
口⑦③⑨ |④-⑤⑥|
⑤②口⑥ |⑦-⑧⑨|
口⑧口口
口口口口
⑩口口口
口口口口
>――⑪ |⑩-⑪-|
29
口②口口 |--①-|
口口①口 |--②-|
口口口口
口口口口
口口口口
口④⑤口
口口口口 |--③-|
③口口④ |--④⑤|
30
口口口∨ |①②③-|
口口口|
口①②③
口口口口
④口口口
∨口口口 |④-⑤⑥|
|口口④ |⑦-|
⑦⑥⑤口
口口∨⑧
⑨⑩⑪口
口口口口 |⑧-|
⑧口口口 |⑨⑩⑪-|
31
∨①口口 |①-②③|
|口①口 |④-|
④③②口
口口口口
⑥口⑤⑦
口⑩⑪口 |⑤-|
⑤口口口 |⑥⑦⑧⑨|
⑧⑫⑬⑨ |⑩⑪⑫⑬|
32
⑨⑦⑧⑩ |①②③④|
①⑬⑭② |⑤⑥⑦⑧|
⑤③④⑥ |⑨⑩⑪⑫|
⑪⑮⑯⑫ |⑬⑭⑮⑯|
33
⑨⑤⑥⑩ |①②③④|
①⑬⑭② |⑤⑥⑦⑧|
⑦③④⑧ |⑨⑩⑪⑫|
⑪⑮⑯⑫ |⑬⑭⑮⑯|
34
③②②③ |①---|
①口口口 |②---|
口①口口 |--③-|
④⑤⑥口 |④-⑤-⑥-|
35
口⑦⑥口 |①-②-③-|
⑫⑧⑤① |④-⑤-⑥-|
⑪⑨④② |⑦-⑧-⑨-|
⑩口口③ |⑩-⑪-⑫-|
36
⑥⑦③② |①---|
口⑧④口 |②③④-|
口口⑩⑨ |⑤-⑥⑦|
口①①⑤ |⑧-⑨⑩|
37
口口②② |①-②-|
口口⑤口 |③④⑤-|
口④口口
③口①口
⑦⑦口口
口口口口
口口⑨⑧ |⑥-⑦-|
口⑥⑩口 |⑧⑨⑩-|
38
⑥口①① |①---|
口⑤④口 |②-③④|
口③口口 |⑤-⑥-|
②⑨⑧⑦ |⑦-⑧-⑨-|
39
口⑥⑦口 |①-②-③-|
①⑤⑧⑫ |④-⑤-⑥-|
②④⑨⑪ |⑦-⑧-⑨-|
③口口⑩ |⑩-⑪-⑫-|
40
①⑦⑥⑤ |①-②③|
口口⑫⑪ |④-⑤⑥|
⑧⑨⑩口 |⑦-⑧⑨|
②③④口 |⑩-⑪⑫|
41
⑤⑥④④ |①---|
⑤①⑦口 |②-③-|
口⑥口③ |④-⑤-|
②②⑦③ |⑥-⑦-|
42
口口口口 |①-②-|
口④口② |③-④⑤|
①口⑤口
口③口口
口口口⑦
口口口口
口口口口 |⑥-⑦-|
⑧―<⑥ |--⑧-|
43
口口口口 |----|
口口口口 |--①-|
>―①口
①口口口
口②口口
口|口口
口∧②口 |--②-|
口口口口
口③口口
口口④③
口口口口
口口口口 |--③④|
44
口口口口 |①-②③|
口①口口 |④-⑤⑥|
口口⑥⑤
口②③④
⑧⑨⑩口
口⑪⑫口
口⑦口口 |⑦-⑧⑨|
口口口口 |⑩-⑪⑫|
45
口口口口 |①②③④|
⑤口口口 |⑤---|
⑤口口口 |----|
①②③④ |----|
46
①③①③ |①---|
口④②口 |②---|
⑤①③⑤ |③-④-|
④②④② |⑤---|
47
②口①③ |①---|
②口口③ |②-③-|
口①口口 |④-⑤-|
④④⑤⑤ |----|
48
④①②④ |①---|
③⑤⑤③ |②---|
①⑤⑤② |③--④|
口③③口 |--⑤-|
49
口口口口 |----|
口口口口 |----|
口口口口 |----|
口口口口 |----|
50
口口口口 |①-②-|
①口口口 |----|
口∨口∨
口②口②
④口④口
∧口∧③
口口口口 |----|
口③口③ |③-④-|
51
口口口口 |----|
口口口口 |----|
口口口口 |----|
口口口口 |----|
52
①口①口 |①-②-|
口④<口 |③-④-|
①口③口
口②口口
口口>⑦
口⑤口口
口⑥口口 |--⑤-|
口口口⑤ |⑥-⑦-|
53
口口口口 |----|
口口口口 |----|
口口口口 |----|
口口口口 |----|
54
④<口① |①-②-|
口口③⑤ |③-④-|
口②口⑤ |----|
口口①口 |⑤---|
55
①口>④ |①-②-|
⑤③口口 |③-④-|
⑤口②口 |----|
口①口口 |⑤---|
56
口①①① |①---|
④②③④ |②-③-|
口②③口 |--④-|
口口口口 |----|
57
口口口口 |①---|
口口口口 |----|
∨∨口口 |----|
①①口口 |----|
58
口口口① |①-②-|
口口口|
②口口∧
①①口口
③∨口④
口|口⑤ |③-④-|
口④⑥口 |⑤-⑥-|
口口口口
口⑧⑦口
口口|口
口⑦|口
口口∧口 |⑦-⑧-|
59
⑦⑧口口 |①-②-|
①②口口 |③-④-|
③⑥口口 |⑤-⑥-|
⑤④口口 |⑦-⑧-|
60
口口①① |①-②-|
口②口|
口口口∧
口口口口
口口口④
∨口③口 |③-④-|
|⑥⑦口 |⑤-⑥-|
④⑧⑤口 |⑦-⑧-|
61
口口④③ |①-②-|
口口②① |③-④-|
口口⑧⑦ |⑤-⑥-|
⑦口⑥⑤ |⑦-⑧-|
62
①口口口 |①-②-|
|口②口
∧口口口
口口口口
④口口口
口口口∨ |③-④-|
口③口|
口口口④
口口⑧口
⑦――<
口口口口 |⑤-⑥-|
口⑤⑥⑦ |⑦-⑧-|
63
口①口⑧ |①-②-|
口口⑤④ |③-④-|
口③②⑥ |⑤-⑥-|
口⑦口口 |⑦-⑧-|
64
口口口口 |①-②-|
①②∨口
口口|口
口口①口
口口口口
口口口∨ |③-④-|
③口口|
口口④④
⑧<口口
口口口口
口⑦⑥口 |⑤-⑥-|
⑤口口⑦ |⑦-⑧-|
65
①口口口 |①---|
①――< |----|
口口口口
口口口口
口∨∨口
②||口
口||口 |----|
口②②口 |②---|
66
⑦④口⑥ |①-②③|
口⑧③口 |④-⑤⑥|
①②⑤① |--⑦-|
口①①⑨ |⑧-⑨-|
67
⑦③口口 |①-②③|
口口口⑤ |-④⑤-|
⑥②⑨④ |⑥⑦-⑧|
①⑩⑧口 |⑨-⑩-|
68
⑨①③口 |①②-③|
①②④③ |④-⑤⑥|
⑥⑤⑦⑧ |-⑦⑧-|
⑤口⑩⑦ |⑨-⑩-|
69
⑫③②⑨ |①-②③|
⑦⑥⑤④ |④⑤⑥⑦|
⑧⑪⑩口 |--⑧-|
口①口口 |⑨⑩⑪⑫|
70
口⑦①⑧ |①--②③④|
⑪⑥⑫口 |⑤-⑥-|
⑨口口⑩ |⑦-⑧-|
②③④⑤ |⑨⑩⑪⑫|
71
①口口⑥ |①-②③|
口口口⑦ |-④⑤-|
口③⑤⑧ |---⑥⑦⑧|
⑩②④⑨ |⑨-⑩-|
72
③口④口 |①-②③|
③口④口 |--④-|
口①口口
口①②口
口口口口
口口口口
⑤⑨⑩⑥ |--⑤⑥|
⑦口口⑧ |⑦⑧⑨⑩|
73
口③口④ |①②③④|
⑤①⑥② |⑤⑥⑦⑧|
口口口口
口⑦⑧口
口口口口
口⑮口⑯
⑨⑬⑭⑩ |⑨⑩⑪⑫|
⑪口口⑫ |⑬⑭⑮⑯|
74
①①③③ |①-②-|
②口⑤口 |③-④⑤|
⑥口⑦⑤ |--⑥-|
⑧④口口 |⑦-⑧-|
75
③③②口 |①-②③|
口口④口 |-④⑤-|
口⑤口口
口⑤口①
口口口⑧
⑦口口⑥
⑦口⑨口 |⑥⑦--|
口口口⑨ |⑧-⑨-|
76
③③③④ |①--②|
口②②④ |--③-|
⑥口⑤① |-④--|
⑤口①⑥ |⑤-⑥-|
77
③口⑥口 |①-②-|
⑤①④口 |③④⑤⑥|
口②口①
口口①口
口⑦口口
口口口口
口口⑧⑨ |--⑦-|
口⑦⑩⑪ |⑧⑨⑩⑪|
78
口口⑩③ |①-②-|
⑤⑨④⑥ |③-④-|
⑤②⑧⑥ |⑤-⑥-|
①⑦口口 |⑦⑧⑨⑩|
79
①①口② |①--②|
③⑨②④ |--③-|
口③口④ |④--⑤⑥⑦|
⑤⑥⑦⑧ |⑧-⑨-|
80
②口口① |①--②|
口口口口
口②①口
口口口口
口③③口
口||口 |--③-|
口||口 |----|
口∧∧口 |----|
81
口①①口 |①---|
①――< |----|
>――① |----|
口口口口 |----|
82
口口口口 |----|
口口口口 |----|
口口口口 |----|
口口口口 |----|
83
口口口口 |----|
口口口口 |----|
口口口口 |----|
口口口口 |----|
84
口口口口 |①---|
①口口口 |----|
口口口① |----|
口口口口 |----|
不確定度: 0