blue moment
ソルラルBOB

BASIC

Level: 3
BPM: 149
Notes: 164

1
口口口口 |----|
口口口口 |----|
口口口口 |----|
口口口口 |----|
2
口①口口 |----|
口口口口 |----|
口口口口 |①---|
口口口口 |----|
3
口口①口 |①---|
口②口口 |----|
口③口口 |②---|
口口口口 |③---|
4
口口口口 |①---|
口口②口 |----|
口口③口 |②---|
口①口口 |③---|
5
口口口口 |①---|
③口口口 |----|
②口口口 |②---|
口口①口 |③---|
6
①口②口 |①---|
口口口口 |----|
口口口口 |②---|
口口口口 |----|
7
口①口口 |①---|
口口②口 |----|
口口③口 |②---|
口口口口 |③---|
8
口口口口 |①---|
口②口口 |----|
口③口口 |②---|
口口①口 |③---|
9
口口口口 |①---|
口口口③ |----|
口口口② |②---|
口①口口 |③---|
10
口口口① |①---|
口口口口 |----|
口口口口 |②---|
口②②口 |----|
11
①①①① |①---|
②③口口 |----|
口口口口 |②---|
口口口口 |③---|
12
口口口口 |①---|
口口①口 |----|
口口③② |②---|
口口口口 |③---|
13
口口口口 |①---|
③口口口 |----|
②①口口 |②---|
口口口口 |③---|
14
①口口口 |①---|
口口口口 |----|
口口口口 |②---|
口②②口 |----|
15
①口口① |①---|
口口③② |----|
口口口口 |②---|
口口口口 |③---|
16
口口口口 |①---|
口①口口 |----|
②③口口 |②---|
口口口口 |③---|
17
口口口口 |①---|
口口口③ |----|
口口①② |②---|
口口口口 |③---|
18
口口口① |①---|
口口口口 |----|
口口口口 |----|
口口口口 |----|
19
口口口口 |①---|
口①①口 |----|
口口口口 |----|
口口口口 |----|
20
口口口口 |①---|
口①②口 |----|
口口口口 |②---|
口口口口 |----|
21
口口口口 |①---|
口口口口 |----|
口①②口 |②---|
口口口口 |----|
22
口口口口 |①---|
口口口口 |----|
口口口口 |②---|
口①②口 |----|
23
①口口① |①---|
口口口口 |----|
口口口口 |----|
口口口口 |----|
24
口口口口 |①---|
口②①口 |----|
口口口口 |②---|
口口口口 |----|
25
口口口口 |①---|
口口口口 |----|
口②①口 |②---|
口口口口 |----|
26
口口口口 |①---|
口口口口 |----|
口口口口 |②---|
口②①口 |----|
27
①口口① |①---|
口口口口 |----|
口口口口 |----|
口口口口 |----|
28
口口口口 |①---|
口口口口 |----|
①②口口 |②---|
口口口口 |----|
29
口口口口 |①---|
口口口口 |----|
口口①② |②---|
口口口口 |----|
30
②口口② |①---|
口口口口 |----|
口口口口 |②---|
口①①口 |----|
31
口口口口 |----|
口①①口 |----|
口口口口 |①---|
口口口口 |----|
32
口口口口 |①---|
口口口① |----|
口口口② |②---|
口口口口 |----|
33
口口口口 |①---|
口口②口 |----|
口口①口 |②---|
口口口口 |----|
34
口口口口 |①---|
①口口口 |----|
②口口口 |②---|
口口口口 |----|
35
口口口口 |①---|
口②口口 |----|
口①口口 |②---|
口口口口 |----|
36
口口口口 |①---|
口口口口 |----|
口口口口 |②---|
②①①② |----|
37
①口口① |①---|
口口口口 |----|
口口口口 |----|
口口口口 |----|
38
口口口口 |①---|
口①①口 |----|
口口口口 |②---|
口②②口 |----|
39
①①①① |①---|
口②口口 |----|
口③口口 |②---|
口口口口 |③---|
40
口口口口 |①---|
口口②口 |----|
口口③口 |②---|
口①口口 |③---|
41
口口口口 |①---|
③口口③ |----|
②口口② |②---|
口口①口 |③---|
42
①口口① |①---|
口口口口 |----|
口口口口 |②---|
口②②口 |----|
43
①口口① |①---|
口口②口 |----|
口口③口 |②---|
口口口口 |③---|
44
口口口口 |①---|
口②口口 |----|
口③口口 |②---|
口口①口 |③---|
45
口口口口 |①---|
③口口③ |----|
②口口② |②---|
口①口口 |③---|
46
①口口① |①---|
口口口口 |----|
口口口口 |②---|
口②②口 |----|
47
①①①① |①---|
②③口口 |----|
口口口口 |②---|
口口口口 |③---|
48
口口口口 |①---|
口口①口 |----|
口口③② |②---|
口口口口 |③---|
49
口口口口 |①---|
③口口③ |----|
②①口② |②---|
口口口口 |③---|
50
①口口① |①---|
口口口口 |----|
口口口口 |②---|
口②②口 |----|
51
①口口① |①---|
口口③② |----|
口口口口 |②---|
口口口口 |③---|
52
口口口口 |①---|
口①口口 |----|
②③口口 |②---|
口口口口 |③---|
53
口口口口 |①---|
③口口③ |----|
②口①② |②---|
口口口口 |③---|
54
①口口① |①---|
口口口口 |----|
口口口口 |----|
口口口口 |----|
55
口口口口 |①---|
口①①口 |----|
口口口口 |----|
口口口口 |----|

不確定度: 0

最終更新:2015年09月02日 23:46