ビビットストリーム
DJ TOTTO
ADVANCED
Level: 7
BPM: 184
Notes: 471
1
口口口口 |----|
口口口口 |----|
口口口口 |----|
口口口口 |----|
2
口口口口 |----|
口口口口 |----|
口口口口 |----|
口口口口 |----|
3
①口口① |①---|
口口口口 |----|
①口口① |----|
口口口口 |----|
4
口口口口 |----|
口口口口 |----|
口口口口 |----|
口口口口 |----|
5
口口口口 |①---|
口①①口 |----|
口口口口 |----|
口①①口 |----|
6
口口口口 |----|
口口口口 |----|
口口口口 |----|
口口口口 |----|
7
口口口口 |①---|
①口口① |----|
口口口口 |----|
①口口① |----|
8
口口口口 |----|
口口口口 |----|
口口口口 |----|
口口口口 |----|
9
口①①口 |①---|
口口口口 |----|
口①①口 |----|
口口口口 |----|
10
口口口口 |----|
口口口口 |----|
口口口口 |----|
口口口口 |----|
11
①口口① |①---|
口口②口 |②---|
①口口① |③---|
口③④口 |④---|
12
①口口② |①---|
口口口口 |②---|
③口口④ |③---|
口口口口 |④---|
13
口口②口 |①---|
口①①口 |②---|
口口口口 |③---|
③①①④ |④---|
14
口口口口 |①---|
口口口口 |②---|
口①②口 |③---|
口③④口 |④---|
15
口口②口 |①---|
①口口① |②---|
口③④口 |③---|
①口口① |④---|
16
口口口口 |①---|
①口②① |②---|
口口口口 |③---|
①③④① |④---|
17
口①①口 |①---|
③口②③ |②---|
口①①口 |③---|
③口④③ |④---|
18
①⑥口口 |①-②③|
口口⑦⑤ |④-⑤-|
口④③② |⑥-⑦-|
⑧口口口 |⑧---|
19
口口②② |①---|
①①口口 |②---|
口口口口
口口①①
口口口口
⑥口口③
④口口⑤ |③-④-|
口口口口 |⑤-⑥-|
20
②②④口 |--①-|
⑤口口口 |--②-|
口③口口 |--③-|
①①口口 |④-⑤-|
21
①①口口 |----|
④口口③ |①---|
②口口⑤ |②-③-|
口口口口 |④-⑤-|
22
②②③③ |--①-|
口口口口 |--②-|
口口口口 |--③-|
①①④④ |--④-|
23
①①口口 |----|
②口口⑤ |①---|
④口口③ |②-③-|
口口口口 |④-⑤-|
24
④口②② |--①-|
口口③口 |--②-|
口口口⑤ |--③-|
口口①① |④-⑤-|
25
口口⑧⑧ |①②③-|
④口口⑤ |④-⑤-|
口⑥⑦口 |⑥-⑦-|
①②③口 |--⑧-|
26
②口口口 |----|
口③口① |--①-|
口口④口 |②-③-|
口口口⑤ |④-⑤-|
27
口口②② |①---|
⑥口口③ |②---|
④口口⑤ |③-④-|
①①口口 |⑤-⑥-|
28
②②④口 |--①-|
⑤口口口 |--②-|
口③口口 |--③-|
①①口口 |④-⑤-|
29
①①口口 |----|
④口口③ |①---|
②口口⑤ |②-③-|
口口口口 |④-⑤-|
30
②②③③ |--①-|
口口口口 |--②-|
口口口口 |--③-|
①①④④ |--④-|
31
①①口口 |----|
②口口⑤ |①---|
④口口③ |②-③-|
口口口口 |④-⑤-|
32
口口②② |--①-|
④口③口 |--②-|
口口口⑤ |--③-|
口口①① |④-⑤-|
33
①①口④ |①---|
口口③口 |----|
口②口口 |--②-|
口口口口 |③-④-|
34
口④③口 |--①-|
口⑥⑤口 |--②-|
口口口口 |③-④-|
②②①① |⑤-⑥-|
35
②②口口 |①---|
口口口口 |----|
口口口口 |----|
口口①① |②---|
36
口口口口 |--①-|
②口口② |----|
③口口③ |②---|
①①口口 |③---|
37
③③①① |①---|
口口口口 |--②-|
口口口口 |----|
口口②② |③---|
38
口口口口 |--①-|
②②②② |----|
③③③③ |②---|
①①口口 |③---|
39
③①③① |①---|
口口口口 |--②-|
口口口口 |----|
口②口② |③---|
40
口口口口 |--①-|
③口口② |----|
③口口② |②---|
①口①口 |③---|
41
①③①③ |①---|
口口口口 |--②-|
口口口口 |----|
②口②口 |③---|
42
口口口口 |--①-|
口②②口 |----|
口③③口 |②---|
口①口① |③---|
43
①口口② |①---|
①口口② |--②-|
③口口口 |----|
③口口口 |③---|
44
口口口口 |--①-|
口②②口 |----|
口③③① |②---|
口口口① |③---|
45
②口口① |①---|
②口口① |--②-|
口口口③ |----|
口口口③ |③---|
46
②②②② |--①-|
口口口口 |----|
①③③口 |②---|
①③③口 |③---|
47
口口口口 |①---|
①①③③ |--②-|
口口口② |----|
口口口② |③---|
48
②口口② |--①-|
口口口口 |----|
①口口口 |②---|
①③③口 |③---|
49
③①②③ |①---|
①口口② |--②-|
口口口口 |----|
口口口口 |③---|
50
口口⑥口 |①-②③|
口⑦①口 |④-⑤-|
⑤口口口 |⑥-⑦-|
②③④⑧ |⑧---|
51
口口口② |①---|
口口口口 |②---|
口口口口 |----|
①口口口 |----|
52
④口口⑤ |①-②-|
口③⑥口 |③-④-|
口⑦②口 |⑤-⑥-|
口口口① |⑦---|
53
口①口口 |----|
口口口口 |①---|
口口口口 |----|
口口口口 |----|
54
口口口口 |①---|
口口口口 |②---|
④③②① |③---|
④③②① |④---|
55
口口①口 |----|
口口口口 |①---|
口口口口 |----|
口口口口 |----|
56
口⑤⑥④ |①-②-|
口口③口 |③-④-|
口②口口 |⑤---|
①口口口 |⑥---|
57
口口口口 |----|
口口口口 |①---|
①口口口 |----|
口口口口 |----|
58
口口③口 |①---|
口④口① |②---|
口口⑤口 |③-④-|
口②口口 |⑤---|
59
口口口② |①---|
口口口口 |②---|
口口口口 |----|
①口口① |----|
60
④口口⑤ |①-②-|
口③⑥口 |③-④-|
口⑦②口 |⑤-⑥-|
口口口① |⑦---|
61
口①口口 |----|
口口口口 |①---|
口口口口 |----|
口口口口 |----|
62
口口口口 |①---|
口口口口 |②---|
④③②① |③---|
④③②① |④---|
63
口口①口 |----|
口口口口 |①---|
口口口口 |----|
口口口口 |----|
64
口⑤⑥④ |①-②-|
口口③口 |③-④-|
口②口口 |⑤---|
①口口口 |⑥---|
65
②口口② |----|
口口口口 |①---|
①口口口 |----|
口口口口 |--②-|
66
口口口口 |--①-|
口③③口 |----|
口②②口 |②---|
①口口① |③---|
67
口①①口 |①---|
②口口口 |②---|
⑥口口③ |③-④-|
口⑤④口 |⑤-⑥-|
68
口⑤口② |--①-|
口口④口 |--②-|
口③口口 |--③-|
口口口① |④-⑤-|
69
口口口口 |----|
口口口① |①---|
②口口⑤ |②-③-|
口③④口 |④-⑤-|
70
②口口③ |--①-|
口口口口 |--②-|
口口口口 |--③-|
①口口④ |--④-|
71
口口口口 |----|
①口口口 |①---|
⑤口口② |②-③-|
口④③口 |④-⑤-|
72
⑤口口② |--①-|
口口口口 |--②-|
口口④口 |--③-|
③口口① |④-⑤-|
73
⑦⑦④口 |①②③-|
口③②① |④---|
⑤口口口 |⑤-⑥-|
口⑥口口 |--⑦-|
74
口口口口 |----|
②口⑤口 |--①-|
口④口口 |②-③-|
口口③① |④-⑤-|
75
口口②② |①---|
⑥口口③ |②---|
④口口⑤ |③-④-|
①①口口 |⑤-⑥-|
76
②②④口 |--①-|
⑤口口口 |--②-|
口③口口 |--③-|
①①口口 |④-⑤-|
77
①①口口 |----|
④口口③ |①---|
②口口⑤ |②-③-|
口口口口 |④-⑤-|
78
②②③③ |--①-|
口口口口 |--②-|
口口口口 |--③-|
①①④④ |--④-|
79
①①口口 |----|
②口口⑤ |①---|
④口口③ |②-③-|
口口口口 |④-⑤-|
80
口口②② |--①-|
④口③口 |--②-|
口口口⑤ |--③-|
口口①① |④-⑤-|
81
①①口④ |①---|
口口③口 |----|
口②口口 |--②-|
口口口口 |③-④-|
82
口④③口 |--①-|
口⑥⑤口 |--②-|
口口口口 |③-④-|
②②①① |⑤-⑥-|
83
口口口口 |①---|
口口口口 |----|
口口口口 |----|
口口①① |----|
84
口口口口 |----|
口口口口 |----|
口口口口 |----|
口口口口 |----|
85
①③口⑦ |①-②-|
口⑥⑤口 |③-④-|
口口口口 |⑤-⑥-|
口口④② |--⑦-|
86
口口口口 |--①-|
①口口① |②-③-|
②②②② |----|
③③③③ |----|
不確定度: 0