エクストラ・マジック・アワー
AKINO with bless4
ADVANCED
Level: 6
BPM: 180
Notes: 345
1
口口口口 |----|
口口口口 |----|
口口口口 |----|
口口口口 |----|
2
口口口口 |①---|
口口口口 |②---|
④口口③ |③---|
②口口① |④---|
3
④口口③ |①---|
②口口① |②---|
口口口口 |③---|
口口口口 |④---|
4
口口口口 |①---|
口口口口 |②---|
口④③口 |③---|
口②①口 |④---|
5
口④③口 |①---|
口②①口 |②---|
口口口口 |③---|
口口口口 |④---|
6
口口口口 |----|
口口口口 |----|
口口口口 |----|
口口口口 |----|
7
②②①① |--①-|
④④③③ |②-③-|
口口口口 |④---|
⑥⑤⑤⑥ |⑤-⑥-|
8
口①①口 |--①-|
口口口口 |②---|
口②②口 |----|
口口口口 |----|
9
口口口口 |----|
口口口口 |----|
口口口口 |----|
口口口口 |----|
10
④口①⑤ |--①-|
口②⑥口 |②-③-|
口口③口 |④-⑤-|
口口口口 |--⑥-|
11
口口口口 |①-②-|
③口口④ |③-④-|
⑦①口⑧ |⑤-⑥-|
⑤口②⑥ |⑦-⑧-|
12
⑤①口④ |--①-|
⑥口②口 |②-③-|
口③口口 |④-⑤-|
口口口口 |--⑥-|
13
口②①口 |①-②-|
口④③口 |③-④-|
口口口口 |⑤-⑥-|
⑦⑧⑥⑤ |⑦-⑧-|
14
④口①⑤ |--①-|
口②⑥口 |②-③-|
口口③口 |④-⑤-|
口口口口 |--⑥-|
15
口口口口 |①-②-|
③口口④ |③-④-|
⑦①口⑧ |⑤-⑥-|
⑤口②⑥ |⑦-⑧-|
16
①①②② |①---|
口口口口 |--②-|
口③③口 |----|
口口口口 |③---|
17
口口口口 |①-②-|
②口口① |----|
②口口① |----|
口口口口 |----|
18
口口口⑤ |①-②-|
口口口⑥ |③-④-|
口④③口 |--⑤-|
口②①口 |⑥---|
19
口口口口 |----|
口口③口 |①---|
口②口口 |②---|
①口口口 |③---|
20
口口口① |①---|
口口口口 |--②-|
口②③口 |③---|
口口口口 |----|
21
口口口口 |----|
口口口口 |----|
口口口口 |----|
口口口口 |----|
22
口口口⑤ |①-②-|
口口口⑥ |③-④-|
口④③口 |--⑤-|
口②①口 |⑥---|
23
口口口口 |----|
口口③口 |①---|
口②口口 |②---|
①口口口 |③---|
24
口口口① |①---|
口口口口 |--②-|
口②③口 |③---|
口口口口 |----|
25
口③③口 |①---|
①口口① |--②-|
口②②口 |--③-|
口口口口 |----|
26
口口口⑤ |①-②-|
口口口⑥ |③-④-|
口④③口 |--⑤-|
口②①口 |⑥---|
27
口口口口 |----|
口口③口 |①---|
口②口口 |②---|
①口口口 |③---|
28
⑥口口⑤ |①-②-|
⑧口口⑦ |③-④-|
口④③口 |⑤-⑥-|
口②①口 |⑦-⑧-|
29
口②②口 |--①-|
口①①口 |②---|
口口口口 |----|
口口口口 |----|
30
口口⑦① |①-②-|
②⑥口口 |③-④-|
口口⑤③ |--⑤-|
④口口口 |⑥-⑦-|
31
口①口口 |--①-|
口口②口 |②---|
口口口③ |----|
口口口③ |③---|
32
口口口口 |①---|
口⑤④口 |②---|
③②①口 |③---|
③②①口 |④-⑤-|
33
口②①口 |--①-|
口口口口 |②---|
口口口口 |----|
口口口口 |----|
34
口口口口 |①---|
①④口① |----|
①②③① |--②-|
口口口口 |③-④-|
35
②口口② |①---|
③口①③ |②---|
④口口④ |③---|
口口口口 |④---|
36
口口口口 |①---|
口③②口 |②-③-|
口⑤④口 |--④-|
①口口① |⑤---|
37
②口口① |----|
口口口口 |----|
口口口口 |①---|
①口口② |②---|
38
口口口口 |----|
口①①口 |①---|
口①①口 |----|
口口口口 |----|
39
口口①口 |--①-|
口②③口 |②-③-|
口④⑤口 |④-⑤-|
口⑥⑦口 |⑥-⑦-|
40
口口口口 |①---|
①口口① |--②-|
②口口② |----|
③口口③ |③---|
41
口②①口 |①-②-|
口②①口 |----|
口④③口 |③---|
口口口口 |④---|
42
①⑥口② |①---|
口口⑤口 |②---|
口④口口 |③-④-|
②口③① |⑤-⑥-|
43
口口③① |--①-|
口④口② |②---|
口口⑤口 |③-④-|
口⑥口口 |⑤-⑥-|
44
口⑥口口 |--①-|
口口⑤口 |②---|
口④口② |③-④-|
口口③① |⑤-⑥-|
45
口口口① |--①-|
口⑤口② |②---|
口口④口 |--③-|
口③口口 |④-⑤-|
46
①口口① |①---|
②口口② |②---|
口口口口
口口口口
⑤⑤⑤⑤
口口口口
口③④口 |③-④-|
口口口口 |--⑤-|
47
口口口口 |----|
口③②口 |①---|
口⑤④口 |②-③-|
①①①① |④-⑤-|
48
②口口① |--①-|
口口口口 |②---|
口口口口 |----|
口口口口 |----|
49
口口口口 |----|
口口口口 |----|
口②①口 |①---|
口口口口 |②---|
50
①⑥口② |①---|
口口⑤口 |②---|
口④口口 |③-④-|
②口③① |⑤-⑥-|
51
口口③① |--①-|
口④口② |②---|
口口⑤口 |③-④-|
口⑥口口 |⑤-⑥-|
52
②口口② |----|
①口口① |①---|
口口口口 |②---|
③口口③ |③---|
53
③①①③ |①---|
口口口口 |②---|
口口口口 |③---|
④②②④ |④---|
54
口①①口 |①---|
口①①口 |----|
口口口口 |----|
口口口口 |----|
55
口⑥⑤口 |①-②-|
口口⑦口 |③-④-|
口④③口 |--⑤-|
口②①口 |⑥-⑦-|
56
①口口⑦ |①-②-|
口②⑥口 |③-④-|
③口口⑤ |--⑤-|
口④口口 |⑥-⑦-|
57
①口口口 |--①-|
口②⑥口 |②-③-|
③口口⑤ |--④-|
口口④口 |⑤-⑥-|
58
口口口① |①---|
口口口口 |----|
口口口口 |----|
口口口口 |----|
59
口口口口 |----|
口口口口 |----|
口口口口 |----|
口口口口 |----|
60
②②①① |--①-|
④④③③ |②-③-|
口口口口 |④---|
⑥⑤⑤⑥ |⑤-⑥-|
61
①①①① |--①-|
口口口口 |----|
口口口口 |----|
口口口口 |----|
62
口口口口 |----|
口口口口 |----|
口口口口 |----|
口口口口 |----|
63
②④④② |①---|
口口口口 |②---|
①③③① |③---|
口口口口 |④---|
64
口口口口 |①---|
②口口② |②---|
口④④口 |③---|
①③③① |④---|
65
①①①① |①---|
②②②② |--②-|
口口口口 |----|
口口口口 |----|
66
口口口口 |----|
口口口口 |----|
口口口口 |----|
口口口口 |----|
67
口口口口 |----|
口口①口 |----|
口②口口 |---①|
口口口口 |---②|
不確定度: 0