惑星☆ロリポップ
SOUND HOLIC feat. Nana Takahashi

ADVANCED

Level: 8
BPM: 180
Notes: 578

1
口口口口 |----|
口口口口 |----|
口口口口 |----|
口口口口 |----|
2
口①②⑤ |①---|
③口口口 |②---|
口④口口 |③-④-|
口口口口 |--⑤-|
3
口口口口 |--①-|
口①口口 |②-③-|
口口②口 |----|
口③口口 |----|
4
口②②口 |①---|
③①①④ |②---|
⑤口口⑥ |③-④-|
口口口口 |⑤-⑥-|
5
①口口① |----|
口口②口 |--①-|
口③口口 |--②-|
口口④口 |③-④-|
6
②⑤⑤② |①---|
口③口口 |②---|
口口④口 |③-④-|
①口口① |--⑤-|
7
口口口口 |--①-|
口口①口 |②-③-|
口②口口 |----|
口口③口 |----|
8
⑥口口⑥ |①-②-|
口②①口 |③-④-|
口④③口 |--⑤-|
⑤口口⑤ |--⑥-|
9
口①②口 |--①-|
①⑤⑤② |②-③-|
③⑤⑤④ |④---|
口③④口 |⑤---|
10
口口口口 |①-②-|
③⑥⑥④ |③-④-|
口口口口 |⑤---|
①⑤⑤② |⑥---|
11
口②③口 |①---|
口口口口 |②-③-|
①口口① |----|
口口口口 |----|
12
⑦⑦⑦⑦ |①-②-|
③⑥⑥④ |③-④-|
口口口口 |⑤---|
①⑤⑤② |⑥-⑦-|
13
口口口口 |----|
口口口口 |----|
口口口口 |----|
口口口口 |----|
14
口口口口 |①-②-|
④⑥⑥③ |③-④-|
口口口口 |⑤---|
②⑤⑤① |⑥---|
15
口③②口 |①---|
口口口口 |②-③-|
①口口① |----|
口口口口 |----|
16
口⑧⑦口 |①-②-|
口⑥⑤口 |③-④-|
口④③口 |⑤-⑥-|
口②①口 |⑦-⑧-|
17
⑥⑥⑥⑥ |①-②-|
①口口① |③-④-|
②④④② |--⑤-|
③⑤⑤③ |⑥---|
18
口口口口 |----|
①口③② |①---|
口口口口 |②---|
口口口口 |--③-|
19
口口口口 |①-②-|
口口口口 |③-④-|
口①②口 |----|
口③④口 |----|
20
①口口② |----|
口口口口 |①---|
口口口口 |②---|
口口③口 |--③-|
21
口口口口 |①-②-|
口③④口 |③-④-|
口①②口 |----|
口口口口 |----|
22
①口口② |----|
口口③口 |①---|
口口口口 |②---|
口口口口 |--③-|
23
口口口口 |①-②-|
⑤口口口 |③-④-|
⑥①②口 |--⑤-|
⑦③④口 |⑥-⑦-|
24
口①①口 |①---|
口②口口 |②-③-|
口⑤③口 |--④-|
口④④口 |--⑤-|
25
②②③③ |①---|
口口①口 |--②-|
口口口口 |③---|
口口口口 |----|
26
口口口口 |----|
②③口① |①---|
口口口口 |②---|
口口口口 |--③-|
27
口口口口 |①-②-|
口口口口 |③-④-|
口②①口 |----|
口④③口 |----|
28
②口口① |----|
口口口口 |①---|
口口口口 |②---|
口③口口 |--③-|
29
⑤口口⑤ |①-②-|
口④③口 |③-④-|
口②①口 |--⑤-|
口口口口 |----|
30
口口口口 |--①-|
口⑦⑥⑤ |②-③-|
口口口④ |④-⑤-|
口①②③ |⑥-⑦-|
31
③口口口 |--①-|
②口口④ |②-③-|
①口口⑤ |--④-|
口口口⑥ |⑤-⑥-|
32
⑤①①④ |①---|
口③③口 |②---|
口②②口 |③---|
口口口口 |④-⑤-|
33
口②①口 |--①-|
②口口① |②-③-|
④⑤⑤③ |④---|
口④③口 |⑤---|
34
①口口① |①---|
③②口口 |②-③-|
口口口口 |--④-|
口④④口 |----|
35
⑤⑥⑦④ |①-②-|
口口口③ |③-④-|
口口口② |--⑤-|
口口口① |⑥-⑦-|
36
口口口口 |--①-|
③②①口 |②-③-|
④⑤⑥口 |--④-|
口口口口 |⑤-⑥-|
37
口口①① |①-②-|
口⑤口② |③-④-|
口口⑥③ |--⑤-|
口⑦口④ |⑥-⑦-|
38
①口口① |①---|
口口②③ |②-③-|
⑤④口口 |--④-|
口口口口 |⑤---|
39
①口口① |①---|
③②口口 |②-③-|
口口④⑤ |--④-|
口口口口 |⑤---|
40
口口口口 |①---|
③②④⑤ |②-③-|
③②④⑤ |--④-|
口①①口 |⑤---|
41
口口口口 |----|
口口口口 |----|
口②②口 |①---|
①口口① |--②-|
42
①①①① |①---|
③口口④ |②---|
③口口④ |③-④-|
口②②口 |----|
43
②②②② |①---|
口③③口 |--②-|
口③③口 |----|
①口口① |③---|
44
②口口② |①---|
②口口② |②---|
口口口口
①口口①

口口口口
口口口口
③口口④ |③-④-|
⑤③④⑤ |--⑤-|
45
口③③口 |--①-|
④②②④ |②-③-|
口①①口 |----|
口口口口 |④---|
46
②③③② |①---|
④口口④ |②---|
⑤口口⑤ |③-④-|
①⑥⑥① |⑤-⑥-|
47
①口口① |----|
口①①口 |--①-|
口②②口 |--②-|
③口口④ |③-④-|
48
②②②② |①---|
③口口④ |②---|
③口口④ |③-④-|
⑤①①⑤ |--⑤-|
49
④口口④ |--①-|
口①①口 |②-③-|
口②②口 |----|
口③③口 |④---|
50
⑦④③⑦ |①-②-|
①⑤⑤② |③-④-|
②⑥⑥① |--⑤-|
口③④口 |⑥-⑦-|
51
口口口口 |----|
①①②② |----|
口口口口 |①---|
①①②② |②---|
52
②②②② |①---|
口口口口 |②---|
口①①口 |③-④-|
③⑤⑤④ |--⑤-|
53
口③②① |--①-|
口③②① |②-③-|
口口口口 |----|
④口口④ |④---|
54
②口口② |①---|
⑥口口⑥ |②---|
⑤③③⑤ |③-④-|
④①①④ |⑤-⑥-|
55
①①①① |----|
口②②口 |--①-|
口③③口 |--②-|
口④④口 |③-④-|
56
②②②② |①---|
口口口口 |②---|
④口口③ |③-④-|
①⑤⑤① |--⑤-|
57
①②③口 |--①-|
①②③口 |②-③-|
口口口口 |----|
④口口④ |④---|
58
⑥③④⑥ |①-②-|
②口口① |③-④-|
①口口② |--⑤-|
⑤④③⑤ |--⑥-|
59
口①②口 |--①-|
①⑤⑤② |②-③-|
③⑤⑤④ |④---|
口③④口 |⑤---|
60
④口口口 |①---|
③口口口 |②---|
②口口口 |③---|
①②③④ |④---|
61
⑤②①⑤ |①---|
口③③口 |②---|
口②①口 |③---|
④口口④ |④-⑤-|
62
口④④口 |①---|
①口口口 |②---|
口②口口 |③---|
口口③口 |--④-|
63
口口口口 |--①-|
②口口① |②---|
口②①口 |③---|
③口口③ |----|
64
口④①口 |①---|
④口口① |②---|
②口口③ |③---|
⑤②③⑤ |④-⑤-|
65
④口口④ |--①-|
口②①口 |②---|
口①②口 |③---|
口③③口 |④---|
66
口④④口 |①---|
口口口① |②---|
口口②口 |③---|
口③口口 |--④-|
67
口口口口 |--①-|
①口口② |②---|
口①②口 |③---|
③口口③ |----|
68
口①④口 |①---|
①口口④ |②---|
③口口② |③---|
⑤③②⑤ |④-⑤-|
69
④④④④ |--①-|
口①②口 |②---|
口②①口 |③---|
口③③口 |④---|
70
口口口口 |①-②-|
③⑥⑥④ |③-④-|
口口口口 |⑤---|
①⑤⑤② |⑥---|
71
口②③口 |①---|
口口口口 |②-③-|
①口口① |----|
口口口口 |----|
72
⑦⑦⑦⑦ |①-②-|
③⑥⑥④ |③-④-|
口口口口 |⑤---|
①⑤⑤② |⑥-⑦-|
73
口口口口 |----|
口口口口 |----|
口口口口 |----|
口口口口 |----|
74
口口口口 |①-②-|
④⑥⑥③ |③-④-|
口口口口 |⑤---|
②⑤⑤① |⑥---|
75
口③②口 |①---|
口口口口 |②-③-|
①口口① |----|
口口口口 |----|
76
口口⑧⑦ |①-②-|
口口⑥⑤ |③-④-|
口口④③ |⑤-⑥-|
口口②① |⑦-⑧-|
77
⑧⑦口口 |①-②-|
⑥⑤口口 |③-④-|
④③口口 |⑤-⑥-|
②①口口 |⑦-⑧-|
78
口⑦⑧① |①-②-|
口⑥口② |③-④-|
口⑤④③ |⑤-⑥-|
口口口口 |⑦-⑧-|
79
⑤⑤⑤⑤ |①---|
③口①③ |②---|
口口口口 |③-④-|
④②②④ |⑤---|

不確定度: 0

最終更新:2016年04月18日 01:38