チョコレートスマイル
日向美ビタースイーツ♪ & ここなつ

BASIC

Level: 5
BPM: 196
Notes: 407

1
口口口口 |----|
口口口口 |----|
口口口口 |----|
口口口口 |----|
2
口口口口 |①---|
①口②口 |----|
口口口口 |②---|
口③③口 |--③-|
3
①①①① |----|
口口口口 |----|
口口口口 |--①-|
口口口口 |----|
4
口口口口 |①---|
口②口① |----|
口口口口 |②---|
口③③口 |--③-|
5
①口口① |----|
口口口口 |--①-|
口口口口 |----|
口口口口 |----|
6
口口③口 |①---|
①口②口 |----|
口口口口 |②---|
口口口口 |--③-|
7
③口口③ |----|
口口口口 |①---|
口口口口 |②---|
②①①② |--③-|
8
口口口口 |----|
口口口口 |----|
口口口口 |----|
口口口口 |----|
9
②②口口 |--①-|
口口口口 |----|
口口口口 |②---|
口口①① |----|
10
口口口① |①---|
口口口② |----|
口口口口 |②---|
口③③口 |--③-|
11
口口口口 |----|
①口口口 |----|
口口口口 |①---|
口口口口 |----|
12
口口口口 |①---|
口①②口 |----|
口口口口 |②---|
口口口口 |----|
13
口口口口 |①---|
口②口① |----|
口③口口 |②---|
口口口口 |③---|
14
口口③③ |①---|
口口口口 |----|
口口口口 |②---|
口①②口 |--③-|
15
②②口口 |----|
口口口口 |----|
口口口口 |①---|
口①口口 |--②-|
16
口口口口 |----|
口口口口 |①---|
口口口口 |②---|
①②③口 |③---|
17
口②②口 |①---|
口口口口 |--②-|
口口口口 |----|
口口口① |----|
18
①口口① |①---|
②口口口 |----|
口口口口 |②---|
口③③口 |--③-|
19
口口口口 |----|
口①口口 |----|
口②口口 |①---|
口口口口 |②---|
20
③③口口 |①---|
口口口口 |----|
口口口口 |②---|
口①②口 |--③-|
21
口口口口 |----|
口口①口 |----|
口口②口 |①---|
口口口口 |②---|
22
口口③③ |①---|
口口口口 |----|
口口口口 |②---|
口②①口 |--③-|
23
②②口口 |----|
口口口口 |----|
口口口口 |①---|
口口①口 |--②-|
24
口口口口 |----|
口口口口 |①---|
口口口口 |②---|
口③②① |③---|
25
口②②口 |①---|
口口口口 |--②-|
口口口口 |----|
①口口口 |----|
26
①口口① |----|
口口口口 |----|
口口口口 |①---|
口口口口 |----|
27
口口口口 |①---|
口口口③ |----|
①②口口 |②---|
口口口口 |--③-|
28
口口口口 |--①-|
口口口口 |--②-|
口口口① |----|
口口口② |----|
29
口口口口 |①---|
②口口口 |--②-|
③口①口 |--③-|
④口口口 |--④-|
30
口①①口 |----|
口口口口 |----|
口口口口 |--①-|
口口口口 |----|
31
口口③③ |①---|
①②口口 |----|
口口口口 |②---|
口口口口 |--③-|
32
口口口口 |--①-|
口口①① |--②-|
口口②② |----|
口口口口 |----|
33
口④口口 |①---|
③口口口 |②---|
口②口口 |③---|
①口口口 |④---|
34
口口口口 |----|
口口口口 |----|
口口口口 |--①-|
口①①口 |----|
35
①口口① |①---|
口②②口 |----|
口口口口 |②---|
③口口③ |--③-|
36
口②②口 |----|
口口口口 |----|
口口口口 |①---|
口①①口 |--②-|
37
口③③口 |----|
口口口口 |①---|
②口口① |②---|
②口口① |--③-|
38
③口口③ |----|
口口口口 |①---|
②口口① |②---|
②口口① |--③-|
39
口⑤口口 |----|
①口④① |①---|
口③口口 |②-③-|
口口②口 |④-⑤-|
40
口口口口 |----|
口口口口 |----|
口口口口 |----|
口口口口 |----|
41
④④口口 |①---|
口口①口 |②---|
口口口② |③---|
口口③口 |--④-|
42
④口口④ |----|
口口口口 |--①-|
口①②③ |②-③-|
口口口口 |--④-|
43
口口口口 |----|
口①口口 |①---|
②口口口 |②---|
口③口口 |③---|
44
口口④④ |①---|
口口③③ |②---|
口口②② |③---|
口口①① |④---|
45
口口口口 |①---|
①口口口 |----|
②口口口 |②---|
口③③口 |--③-|
46
④口口④ |----|
口口口口 |--①-|
③②①口 |②-③-|
口口口口 |--④-|
47
口①①口 |①---|
口②②口 |②---|
口③③口 |③---|
口④④口 |④---|
48
①口口口 |①-②-|
口口口② |③-④-|
③口口口 |----|
口口口④ |----|
49
口口④④ |①---|
口①口口 |②---|
②口口口 |③---|
口③口口 |--④-|
50
④口口④ |----|
口口口口 |--①-|
③②①口 |②-③-|
口口口口 |--④-|
51
口口口口 |----|
口口①口 |①---|
口口口② |②---|
口口③口 |③---|
52
④④口口 |①---|
③③口口 |②---|
②②口口 |③---|
①①口口 |④---|
53
口口口口 |①---|
口口口① |----|
口口口② |②---|
口③③口 |--③-|
54
口④④口 |----|
口口口口 |--①-|
口①②③ |②-③-|
口口口口 |--④-|
55
①口口① |----|
②口口② |①---|
③口口③ |②---|
口口口口 |③---|
56
②②②② |①---|
口口口口 |--②-|
口口③口 |----|
①口口① |③---|
57
口口口口 |①---|
口②①口 |----|
口口口口 |----|
口口口口 |②---|
58
口口口口 |①---|
口口口口 |----|
口①口② |----|
口口口口 |②---|
59
②口口口 |①---|
口口口① |----|
口口口口 |----|
口口口口 |②---|
60
口口口口 |①---|
①口②口 |----|
口口口口 |----|
口口口口 |②---|
61
口口口口 |①---|
口口口口 |----|
②口①口 |----|
口口口口 |②---|
62
口④③② |①---|
①口口口 |----|
口口口口 |--②-|
口口口口 |③-④-|
63
①口口口 |①---|
口口口口 |②-③-|
②口口④ |--④-|
③口口⑤ |⑤---|
64
③④④③ |①---|
②⑤⑤② |②-③-|
口⑥⑥口 |--④-|
口①①口 |⑤-⑥-|
65
口口口口 |----|
①口口口 |--①-|
口口口② |--②-|
③口口口 |--③-|
66
口口口口 |----|
口口口③ |--①-|
②口口口 |--②-|
口口口① |--③-|
67
③口口③ |--①-|
口口口口 |--②-|
口②②口 |----|
口①①口 |③---|
68
口口口口 |----|
①口口② |--①-|
①口口② |--②-|
口口口口 |----|
69
口②②口 |----|
口口口口 |--①-|
口口口口 |--②-|
口①①口 |----|
70
口口④④ |①---|
口①口口 |②---|
口②口口 |③---|
口③口口 |--④-|
71
③口口③ |----|
口口②口 |--①-|
口口①口 |--②-|
口口口口 |--③-|
72
口口口口 |----|
①口口口 |①---|
口②口口 |②---|
口口③口 |③---|
73
口口口④ |①---|
口口口③ |②---|
口口口② |③---|
口口口① |④---|
74
口口口口 |①---|
①口口口 |----|
口②口口 |②---|
③口口口 |--③-|
75
口口口口 |----|
口口口口 |--①-|
口口②口 |--②-|
口口①口 |----|
76
①口口① |①---|
口②③口 |----|
口口口口 |②---|
口口口口 |③---|
77
口②②口 |①---|
口口口口 |--②-|
口口口口 |----|
①口口① |----|
78
口口④④ |①---|
口①口口 |②---|
②口口口 |③---|
口③口口 |--④-|
79
④口口④ |----|
口口口口 |--①-|
③②①口 |②-③-|
口口口口 |--④-|
80
口口口口 |----|
口口①口 |①---|
口口口② |②---|
口口③口 |③---|
81
④④口口 |①---|
③③口口 |②---|
②②口口 |③---|
①①口口 |④---|
82
口口口口 |①---|
口口口① |----|
口口口② |②---|
口③③口 |--③-|
83
口④④口 |----|
口口口口 |--①-|
口①②③ |②-③-|
口口口口 |--④-|
84
①口口① |①---|
②口口② |②---|
③口口③ |③---|
④口口④ |④---|
85
②②②② |①---|
口口口口 |--②-|
口③口口 |----|
口①①口 |③---|
86
口口口口 |①---|
口①②口 |----|
口口口口 |----|
口口口口 |②---|
87
口口口口 |①---|
口口口口 |----|
②口①口 |----|
口口口口 |②---|
88
口口口② |①---|
①口口口 |----|
口口口口 |----|
口口口口 |②---|
89
口口口口 |①---|
口②口① |----|
口口口口 |----|
口口口口 |②---|
90
口口口口 |①---|
口口口口 |----|
口①口② |----|
口口口口 |②---|
91
②③④口 |①---|
口口口① |----|
口口口口 |--②-|
口口口口 |③-④-|
92
口口口① |①---|
口口口口 |②-③-|
④口口② |--④-|
⑤口口③ |⑤---|
93
③④④③ |①---|
②⑤⑤② |②-③-|
口⑥⑥口 |--④-|
口①①口 |⑤-⑥-|
94
口口口口 |----|
口③③口 |①---|
口口口口 |②---|
口①②口 |--③-|
95
①①①① |----|
口口口口 |----|
口口口口 |--①-|
口口口口 |----|
96
口口口口 |①---|
口口口口 |----|
口口口② |----|
①①①① |--②-|
97
③口口③ |--①-|
口口口口 |--②-|
口②①口 |----|
口口口口 |③---|
98
④口口④ |①---|
口口口口 |②---|
口口口口 |③---|
①②③口 |--④-|
99
③③口口 |----|
口口口口 |①---|
口口口口 |②---|
口①②口 |--③-|
100
口口口口 |----|
口③口口 |①---|
口口②口 |②---|
口①口口 |③---|
101
③口口③ |--①-|
②口口② |--②-|
口口口口 |③---|
口①①口 |----|

不確定度: 0

最終更新:2016年04月18日 01:28