Ignis Danse
Yuji Masubuchi「太鼓の達人」より

ADVANCED

Level: 9
BPM: 246
Notes: 719

1
口口口口 |----|
口口口口 |----|
口口口口 |----|
口口口口 |----|
2
口口口口 |①---|
口口口⑥ |②---③-|
口④③⑤ |④---|
②口口① |⑤---⑥-|
3
口口口口 |----|
口③②口 |①---②-|
①口⑤口 |③---|
口口④口 |④---⑤-|
4
④④②② |----|
口口口口 |①---②-|
口口口口 |----|
③口口① |③---④-|
5
口口口口 |----|
口②③口 |①---|
口口口① |②---|
④④口口 |③---④-|
6
口②③口 |----|
口口口① |①---②-|
⑤⑤口④ |③---|
口口口口 |④---⑤-|
7
口口口口 |----|
⑤⑤口口 |①---②-|
口口④口 |③---|
口②③① |④---⑤-|
8
①①口口 |----|
口口口口 |----①-|
②口口口 |----|
口口口口 |----②-|
9
口口口口 |①-②-③-|
④⑤⑥⑦ |④-⑤-⑥-|
口①②③ |⑦---|
口口口⑧ |----⑧-|
10
口口口口 |----|
口口口⑤ |①---②-|
口③②④ |③---|
①口口口 |④---⑤-|
11
口口口口 |----|
口⑤口口 |①---②-|
①口④口 |③---|
口③②口 |④---⑤-|
12
④④②② |----|
口口口口 |①---②-|
口口口口 |----|
③口口① |③---④-|
13
口口口口 |----|
口②③口 |①---|
口口口① |②---|
口口口④ |③---④-|
14
口口口口 |----|
口口口⑤ |①---②-|
口③②④ |③---|
①口口口 |④---⑤-|
15
口③②口 |----|
①口④口 |①---②-|
⑤口口口 |③---|
⑤口口口 |④---⑤-|
16
④口口口 |----|
④②口口 |①---②-|
口②①口 |----|
口口口③ |③---④-|
17
口口口口 |----|
口口口口 |----|
口口口口 |①---|
口②①③ |②---③-|
18
口口口口 |----|
口口口⑤ |①---②-|
口③②④ |③---|
①口口口 |④---⑤-|
19
口口口口 |----|
口⑤口口 |①---②-|
①口④口 |③---|
口③②口 |④---⑤-|
20
④④②② |----|
口口口口 |①---②-|
口口口口 |----|
③口口① |③---④-|
21
口口口口 |----|
口②③口 |①---|
口口口① |②---|
口口口④ |③---④-|
22
口口口口 |----|
口口口⑤ |①---②-|
口③②④ |③---|
①口口口 |④---⑤-|
23
⑤③②口 |----|
①⑤④口 |①---②-|
口口口口 |③---|
口口口口 |④---⑤-|
24
口口口口 |----|
口口口口 |①---②-|
④②①口 |----|
②④口③ |③---④-|
25
口口口口 |----|
口口口口 |----|
口口②① |①---|
口口口口 |②---|
26
口口口口 |①---|
口口口口 |②---|
口口口口 |③---|
④③②① |④---|
27
口口口口 |①---|
口口口口 |----|
②①①口 |②---|
口口②口 |----|
28
②口口口 |①---|
口①②口 |②---|
口口口① |----|
口口口口 |----|
29
口①口口 |①---|
口口②口 |----|
①口口口 |②---|
口②口口 |----|
30
口口口① |①---|
口③口口 |----|
口②①③ |②---|
口口口② |③---|
31
①口②口 |----|
口口①② |①---|
口口口口 |----|
口口口口 |②---|
32
口②口口 |①---|
②口口口 |②---|
口⑤④③ |----|
口①①口 |③-④-⑤-|
33
口口口口 |①---|
口口口口 |----|
①口口口 |----|
口口口口 |----|
34
口②口① |①---|
④口③口 |②---|
口①口② |----③-|
③口④口 |----④-|
35
口③①② |----|
口口口口 |①---|
①②口③ |②---|
口口口口 |----③-|
36
③口口口 |----|
口口①② |①---|
口口口口 |②---|
①②口口 |③---|
37
口口口口 |①---|
①①口口 |②---|
口②②口 |③---|
口口③③ |----|
38
口口①② |①---|
③口口口 |②---|
口口口③ |----|
①②口口 |③---|
39
②口②口 |----|
口口口口 |----①-|
口①①口 |----|
口口口口 |②---|
40
口口口口 |----①-|
口①口① |----|
②口②口 |②---|
口③口③ |----③-|
41
口口口口 |----|
口口口口 |----|
口口口口 |----|
口口口口 |----|
42
口口口口 |①-②-③-|
口口⑤口 |④---|
①②③④ |----|
口口口口 |⑤---|
43
口口口口 |①-②-③-|
口⑤口口 |④---|
口口口口 |----|
④③②① |⑤---|
44
口口口口 |----|
口口口口 |----|
口口口口 |①---|
口口①口 |----|
45
口⑧口⑦ |①-②-|
口⑥口⑤ |③-④-|
口④口③ |⑤-⑥-|
口②口① |⑦-⑧-|
46
②口①口 |①-②-|
④口③口 |③-④-|
⑥口⑤口 |⑤-⑥-|
⑧口⑦口 |⑦-⑧-|
47
口⑧口⑦ |①-②-|
口⑥口⑤ |③-④-|
口④口③ |⑤-⑥-|
口②口① |⑦-⑧-|
48
②口①口 |①-②-|
⑥口③口 |③-④-|
⑤口口口 |-⑤--|
④口口口 |⑥---|
49
口⑧⑦口 |①-②-|
口⑥⑤口 |③-④-|
口④③口 |⑤-⑥-|
口②①口 |⑦-⑧-|
50
②口口① |①-②-|
④口口③ |③-④-|
⑥口口⑤ |⑤-⑥-|
⑧口口⑦ |⑦-⑧-|
51
口口口⑦ |①-②-|
口⑥⑤⑧ |③-④-|
口④③口 |⑤-⑥-|
口②①口 |⑦---⑧-|
52
口口口口 |--①---|
口口口口 |②---|
口口口① |----|
②口口口 |----|
53
口口口口 |----|
口口口口 |----|
口口口口 |----|
口②口① |①-②-|
54
⑥口⑤口 |①-②-|
口②口① |③-④-|
④口③口 |⑤-⑥-|
⑧口⑦口 |⑦-⑧-|
55
口⑥口⑤ |①-②-|
②口①口 |③-④-|
口④口③ |⑤-⑥-|
口⑧口⑦ |⑦-⑧-|
56
⑥口⑤口 |①-②-|
口②口① |③-④-|
④口③口 |⑤-⑥-|
⑧口⑦口 |⑦-⑧-|
57
⑥④⑤口 |①-②-|
口③①口 |-③--|
口②口口 |④---|
口口口口 |⑤-⑥-|
58
口⑧口⑦ |①-②-|
口④口③ |③-④-|
②口①口 |⑤-⑥-|
口⑥口⑤ |⑦-⑧-|
59
⑧口⑦口 |①-②-|
④口③口 |③-④-|
口②口① |⑤-⑥-|
⑥口⑤口 |⑦-⑧-|
60
口⑥口口 |①-②-|
口④⑤③ |③-④-|
②口①口 |--⑤-|
口口口口 |⑥---|
61
⑥⑥口口 |①-②-|
口口口口 |③-④-|
口口⑤口 |⑤---|
④②①③ |--⑥-|
62
口口③③ |----|
口②口口 |①---|
口①口口 |②-③-|
口口口口 |----|
63
②②口口 |①---|
口口口口 |--②-|
口③①口 |----|
口口口口 |③---|
64
口口②② |①-②-|
口①口口 |----|
口口口口 |③---|
④口⑤③ |④-⑤-|
65
口口④④ |-①--|
口口②口 |②---|
口③①口 |③---|
口口口口 |--④-|
66
③③口口 |----|
口口②口 |①---|
口口①口 |②-③-|
口口口口 |----|
67
口口②② |①---|
口口口口 |--②-|
口①③口 |----|
口口口口 |③---|
68
②②口口 |①-②-|
口口①口 |----|
口③口口 |③---|
口口④口 |--④-|
69
口口口④ |-①--|
口口②④ |②---|
口口①口 |③---|
口③口口 |--④-|
70
②口口口 |----|
②口口口 |①---|
口口口口 |--②-|
口口①口 |----|
71
口口口口 |①---|
口口口口 |②---|
③口口④ |③---|
①口口② |④---|
72
③口口④ |①---|
①口口② |②---|
口口口口 |③---|
口口口口 |④---|
73
口⑤⑤口 |①-②-|
口口口口 |③-④-|
口④③口 |⑤---|
口②①口 |----|
74
口口口口 |----|
①口口口 |①---|
②口口口 |----|
口口口口 |②---|
75
口④④口 |----|
口口③② |①---|
口口③② |②---③-|
①口口口 |----④-|
76
口口口口 |----|
①②口口 |①---②-|
①②口口 |----③-|
口③③口 |----|
77
①①①① |①---|
口口口③ |----②-|
口口口② |----|
口口口口 |③---|
78
口口口口 |①-②-③-|
⑨⑩⑪⑫ |④-⑤-⑥-|
⑤⑥⑦⑧ |⑦-⑧-⑨-|
①②③④ |⑩-⑪-⑫-|
79
①②③④ |①-②-③-|
⑧⑨⑩口 |④-⑤-⑥-|
口口口口 |⑦---|
⑤⑥⑦口 |⑧-⑨-⑩-|
80
口口口⑧ |①-②-③-|
口口口① |④-⑤-⑥-|
②③④⑤ |⑦---|
⑥⑦口口 |⑧---|
81
口②①口 |①---|
④口口口 |②---③-|
③口口口 |----|
口口口口 |④---|
82
口口口口 |①-②-③-|
⑫⑪⑩⑨ |④-⑤-⑥-|
⑧⑦⑥⑤ |⑦-⑧-⑨-|
④③②① |⑩-⑪-⑫-|
83
④③②① |①-②-③-|
口⑩⑨⑧ |④-⑤-⑥-|
口口口口 |⑦---|
口⑦⑥⑤ |⑧-⑨-⑩-|
84
口口⑪⑩ |①-②-③-|
①口口口 |④-⑤-⑥-|
⑤④③② |⑦-⑧-⑨-|
⑨⑧⑦⑥ |⑩-⑪---|
85
①口口口 |①---|
口口口③ |----②-|
口口口② |----|
口口口口 |③---|
86
口口口口 |①-②-③-|
⑨⑩⑪⑫ |④-⑤-⑥-|
⑤⑥⑦⑧ |⑦-⑧-⑨-|
①②③④ |⑩-⑪-⑫-|
87
①②③④ |①-②-③-|
⑧⑨⑩口 |④-⑤-⑥-|
口口口口 |⑦---|
⑤⑥⑦口 |⑧-⑨-⑩-|
88
口口口⑧ |①-②-③-|
口口口① |④-⑤-⑥-|
②③④⑤ |⑦---|
⑥⑦口口 |⑧---|
89
口②①口 |①---|
④口口口 |②---③-|
③口口口 |----|
口口口口 |④---|
90
口口口口 |①-②-③-|
⑫⑪⑩⑨ |④-⑤-⑥-|
⑧⑦⑥⑤ |⑦-⑧-⑨-|
④③②① |⑩-⑪-⑫-|
91
④③②① |①-②-③-|
口口口⑪ |④-⑤-⑥-|
口口⑩⑨ |⑦-⑧-⑨-|
⑧⑦⑥⑤ |⑩---⑪-|
92
⑦⑥⑤④ |①-②-③-|
③②①口 |④-⑤-⑥-|
口口口口 |⑦---|
口口口⑧ |⑧---|
93
口④③口 |①---|
口口口③ |②---③-|
口口口口 |----|
口②①口 |④---|
94
口口口口 |①---|
①②②口 |②---③-|
④⑤③口 |④---|
口口口口 |⑤---|
95
③④①口 |①---|
口口口① |②---|
口口口口 |③---|
①②口口 |④---|
96
口口口口 |①-②-|
①③②④ |③-④-|
⑤⑦⑥⑧ |⑤-⑥-|
口口口口 |⑦-⑧-|
97
⑤⑦⑥⑧ |①-②-|
口口口口 |③-④-|
口口口口 |⑤-⑥-|
①③②④ |⑦-⑧-|
98
口口口口 |①-②-|
①③②④ |③-④-|
⑤⑦⑥⑧ |⑤-⑥-|
口口口口 |⑦-⑧-|
99
④口口④ |①---|
口③③口 |②---|
口口口口 |③---|
①②口口 |④---|
100
口①①口 |①---|
②口口② |②---|
口④④口 |③---|
口③③口 |④---|
101
口③③② |①---|
③①①口 |----|
口口口口 |②---|
口口口口 |③---|
102
口口口口 |①---|
口④②① |②---|
口口⑤③ |③-④-|
口口口口 |⑤---|
103
⑥④⑤③ |①---|
口口口口 |②---|
口②口口 |③-④-|
口口②① |⑤-⑥-|
104
口口口口 |①-②-|
④②③① |③-④-|
⑧⑥⑦⑤ |⑤-⑥-|
口口口口 |⑦-⑧-|
105
口口口口 |①---|
③口口④ |②---|
口口口口 |③---|
口口②① |④---|
106
口口口口 |----|
口③③口 |①---|
口②②口 |②---|
①口口① |----③-|
107
口②②口 |----①-|
①口口① |----②-|
口口口口 |----|
口口口口 |----|
108
口口口口 |①-②-|
口口口口 |③-④-|
⑧⑥⑦⑤ |⑤-⑥-|
④②③① |⑦-⑧-|
109
④口口口 |①-②-|
口②③① |③-④-|
口口口口 |----|
口口⑤口 |⑤---|
110
口口④③ |①---|
口口口口 |②---|
口口口口 |③---|
②①口口 |④---|
111
②①口口 |①---|
④口口③ |②---|
③口口④ |③---|
口口口口 |----④-|
112
口口口口 |----|
口①①口 |①---|
口①①口 |----|
口口口口 |----|
113
口口口口 |----|
口口口口 |----①-|
口口③口 |----|
②口口① |②---③-|
114
口口口口 |①---|
口口口③ |②---③-|
④①口② |----|
口口⑤口 |④---⑤-|
115
口口⑤⑤ |①---|
口③口口 |②---③-|
口口②口 |----|
口①口④ |④---⑤-|
116
②②口口 |----|
口口口口 |①---②-|
口口口③ |----|
①口口口 |③---|
117
口口口口 |①---|
口①②口 |②---③-|
口口⑤口 |----|
④口口③ |④---⑤-|
118
口口⑤口 |①---|
④口口③ |②---③-|
口①口② |----|
口口口口 |④---⑤-|
119
⑤①口③ |①---|
口口口口 |②---③-|
口②④口 |----|
口口口口 |④---⑤-|
120
口④②口 |----|
④口口② |①---②-|
口口口口 |----|
口①③口 |③---④-|
121
④口口② |----|
口④②口 |①---②-|
口①③口 |----|
口口口口 |③---④-|
122
口②①口 |----|
口口口口 |①---②-|
口口⑧⑦ |③-④-⑤-|
⑥⑤④③ |⑥-⑦-⑧-|
123
口口⑥⑥ |①-②-③-|
口⑤④③ |④-⑤-⑥-|
②①口口 |----|
口口口口 |----|

不確定度: 0

最終更新:2015年05月07日 16:08