FUJIN Rumble
COSIO(ZUNTATA)「グルーヴコースター」より

ADVANCED

Level: 8
BPM: 192
Notes: 605

1
口口口口 |----|
口口口口 |----|
口口口口 |----|
口口口口 |----|
2
口口口口 |----|
口口口口 |----|
口口口口 |----|
口口口口 |----|
3
口口口口 |----|
口口口口 |----|
口口口口 |----|
口口口口 |----|
4
口口①口 |----|
口口②口 |----|
口口③口 |----|
口口④口 |①②③④|
5
口口口口 |①---|
口口口口 |----|
口口口口 |----|
口①口口 |----|
6
口口口口 |--①-|
口口口口 |----|
口①②口 |②---|
口口口口 |----|
7
口①口口 |----|
口口②口 |①---|
口口口口 |②---|
口口口口 |----|
8
口口②口 |----|
口口③口 |--①-|
①口④口 |----|
口口⑤口 |②③④⑤|
9
口口口口 |①---|
口②口④ |②---|
⑤口口③ |③-④-|
口①口口 |--⑤-|
10
口⑤④口 |①---|
①口⑥口 |②-③-|
口口②口 |--④-|
口③口口 |⑤-⑥-|
11
口口口④ |----|
口口口④ |①---|
口③②口 |②-③-|
口①口口 |--④-|
12
①口口口 |--①-|
①口口口 |--②-|
③口口② |--③-|
③口口② |----|
13
口口口口 |①---|
口②口④ |②---|
⑤口口③ |③-④-|
口①口口 |--⑤-|
14
口⑤④口 |①---|
①口⑥口 |②-③-|
口口②口 |--④-|
口③口口 |⑤-⑥-|
15
口口口④ |----|
口口口④ |①---|
口③②口 |②-③-|
口①口口 |--④-|
16
①口④口 |--①-|
①口⑤口 |--②-|
③口⑥② |--③-|
③口⑦② |④⑤⑥⑦|
17
口④口口 |①---|
口③口口 |②---|
口②口口 |③---|
口①口口 |④---|
18
口口①口 |①---|
口口②口 |②---|
口口③口 |③---|
⑤口④口 |④-⑤-|
19
口口口④ |①---|
口口口③ |②---|
口口口② |③---|
口口口① |④---|
20
①口口口 |①-②-|
③口②口 |③---|
④口口口 |④--⑤|
口⑥⑤口 |⑥---|
21
口口②① |①---|
口③口口 |--②-|
口口口口 |----|
口口口口 |③---|
22
口口口口 |①---|
口口口口 |--②-|
①②口口 |----|
口口③口 |③---|
23
⑧口口⑦ |①-②-|
⑥口口⑤ |③-④-|
④口口③ |⑤-⑥-|
②口口① |⑦-⑧-|
24
口①①口 |①---|
口②②口 |②---|
口③③口 |③---|
口④④口 |④---|
25
口口口口 |----|
口口口口 |----|
口口口口 |----|
口口口口 |----|
26
口口口口 |----|
口口口口 |----|
口口口口 |----|
口口口口
27
口口①口 |----|
口口②口 |①②③④|
口口③口
口口④口
28
④口口③ |①---|
①②口口 |②---|
①②口口 |③-④-|
⑥口口⑤ |⑤-⑥-|
29
③口口④ |①---|
口口②① |②---|
口口②① |③-④-|
⑤口口⑥ |⑤-⑥-|
30
④口口③ |①---|
①②口口 |②---|
①②口口 |③-④-|
⑥口口⑤ |⑤-⑥-|
31
⑥口①口 |①-②-|
②口口⑤ |③-④-|
口④口⑦ |⑤-⑥-|
口⑧③口 |⑦-⑧-|
32
④口口③ |①---|
①②口口 |②---|
①②口口 |③-④-|
⑥口口⑤ |⑤-⑥-|
33
③口口④ |①---|
口口②① |②---|
口口②① |③-④-|
⑤口口⑥ |⑤-⑥-|
34
④口口③ |①---|
①②口口 |②---|
①②口口 |③-④-|
⑥口口⑤ |⑤-⑥-|
35
口⑧③口 |①-②-|
②口口⑦ |③-④-|
⑥④①口 |⑤-⑥-|
口口⑤口 |⑦-⑧-|
36
②口口① |①---|
口②①口 |--②-|
④口口③ |----|
④口口③ |③-④-|
37
口口①口 |--①-|
口②口口 |----|
口口②口 |②---|
口①口口
38
②口口① |①---|
②③③① |--②-|
口④④口 |----|
口口口口 |③-④-|
39
口①①口 |--①-|
口口口口 |----|
③口口② |②-③-|
③口口②
40
②口口② |①---|
口口口口 |--②-|
口口①口 |----|
口口①口
41
口②①口 |①---|
②口口① |--②-|
④口口③ |----|
④口口③ |③-④-|
42
口口①口 |--①-|
口②口口 |----|
口口②口 |②---|
口①口口
43
②口口① |①---|
②③③① |--②-|
口④④口 |----|
口口口口 |③-④-|
44
口①①口 |--①-|
③口口② |----|
③口口② |②-③-|
口口口口 |--|
45
口④②口 |①-②-|
⑧③①⑥ |③-④-|
⑦口口⑤ |⑤-⑥-|
口口口口 |⑦-⑧-|
46
口口口口 |①-②-|
⑧口口⑥ |③-④-|
⑦④②⑤ |⑤-⑥-|
口③①口 |⑦-⑧-|
47
⑬⑤①⑨ |①②③④|
⑭⑥②⑩ |⑤⑥⑦⑧|
⑮⑦③⑪ |⑨⑩⑪⑫|
⑯⑧④⑫ |⑬⑭⑮⑯|
48
口口口口 |----|
口口口口 |----|
口①①口 |----|
口口口口 |①---|
49
①口口① |①---|
②口口② |②---|
③口口③ |③---|
口口口口
50
口口②口 |①---|
口口③口 |②③④⑤|
口口④口
①口⑤①
51
②口⑤口 |①---|
①②口口 |②---|
④①口口 |③-④-|
口⑥口③ |⑤-⑥-|
52
口口口② |①---|
口口②① |②---|
口口①口 |③-④-|
⑤⑥④③ |⑤-⑥-|
53
②口口口 |①---|
①②口口 |②---|
口①口口
口口口口

口口口③
口口⑤口
④⑥口口 |③-④-|
口口口口 |⑤-⑥-|
54
口⑥口⑦ |①-②-|
口口口口 |③-④-|
⑧口⑤② |⑤-⑥-|
③④口① |⑦-⑧-|
55
②口口口 |①---|
①②口口 |②---|
口①口口
口口口口

口口⑤口
口口口口
口⑥口口 |③-④-|
④口口③ |⑤-⑥-|
56
口口口② |①---|
口口②① |②---|
口口①③ |③-④-|
⑤⑥④口 |⑤-⑥-|
57
②④口口 |①---|
①②⑤口 |②---|
口①口③ |③-④-|
⑥口口口 |⑤-⑥-|
58
④口口① |①-②-|
⑥口口口 |③-④-|
口②⑦⑤ |⑤-⑥-|
⑧口③口 |⑦-⑧-|
59
②①口口 |①---|
口⑥④口 |②---|
②①口口 |③-④-|
⑤口口③ |⑤-⑥-|
60
口口①② |①---|
③口口④ |②---|
口口①② |③-④-|
⑤口口⑥ |⑤-⑥-|
61
②①口口 |①---|
口口口口 |②---|
②①口口
口口口口

口口口口
口⑤③口
口⑥④口 |③-④-|
口口口口 |⑤-⑥-|
62
口④口③ |①-②-|
口口⑤⑥ |③-④-|
②口口口 |⑤-⑥-|
⑧⑦口① |⑦-⑧-|
63
②④③口 |①---|
口①口口 |②---|
②①口口 |③-④-|
⑥口口⑤ |⑤-⑥-|
64
口口口② |①---|
③口①⑤ |②---|
口口①② |③-④-|
口④⑥口 |⑤-⑥-|
65
②口口口 |①---|
口①口口 |②---|
②①口口
口口口口

口口口口
口口口口
口⑥③口 |③-④-|
口④⑤口 |⑤-⑥-|
66
②口口① |①-②-|
④口口③ |③-④-|
⑥口口⑤ |⑤-⑥-|
⑧口口⑦ |⑦-⑧-|
67
口口①口 |①---|
口口②口 |②---|
口口③口 |③---|
口口④口 |④---|
68
口①口口 |①---|
口②口口 |②---|
口③口口 |③---|
口④口口 |④---|
69
②口口① |①---|
②④③口 |②---|
口④③口 |③-④-|
⑤口口⑤ |--⑤-|
70
②口口② |--①-|
③口口③ |--②-|
①口口① |--③-|
口口口口 |----|
71
口口①口 |①---|
口口②口 |②---|
口口③口 |③---|
口口④口 |④---|
72
口①口口 |①---|
口②口口 |②---|
口③口口 |③---|
口④口口 |④---|
73
②口口① |①---|
②④③口 |②---|
口④③口 |③-④-|
⑤口口⑤ |--⑤-|
74
④口口④ |①---|
口③③口 |②---|
②口口② |③---|
口①①口 |④---|
75
口口口口 |----|
口①①口 |----|
口口口口 |①---|
口口口口
76
口口⑥⑤ |①---|
口口④③ |②---|
②②口口 |③-④-|
①①口口 |⑤-⑥-|
77
①①口口 |①---|
②②口口 |②---|
口口⑥⑤ |③-④-|
口口④③ |⑤-⑥-|
78
口③口⑧ |①-②-|
口口④② |③-④-|
⑤口口口 |⑤-⑥-|
①⑦口⑥ |⑦-⑧-|
79
⑤⑦口口 |①-②-|
口①④⑥ |③-④-|
口口②口 |⑤-⑥-|
③口口⑧ |⑦-⑧-|
80
口口④③ |①---|
口口⑥⑤ |②---|
②①口口 |③-④-|
②①口口 |⑤-⑥-|
81
②①口口 |①---|
②①口口 |②---|
口口⑥⑤ |③-④-|
口口④③ |⑤-⑥-|
82
③⑦口口 |①-②-|
口①⑥② |③-④-|
⑤口口⑧ |⑤-⑥-|
口口口④ |⑦-⑧-|
83
口口④口 |①-②-|
③⑤⑧口 |③-④-|
⑦口②口 |⑤-⑥-|
口①⑥口 |⑦-⑧-|
84
②④④② |①---|
口口口口 |②---|
口口口口 |③---|
①③③① |④---|
85
口口口口 |①---|
②口口① |②---|
④②①③ |③---|
口④③口 |④---|
86
口①②口 |①---|
②口口① |②---|
口③④口 |③---|
④口口③ |④---|
87
口口口口 |①---|
②口口① |②---|
②口口① |③---|
④④③③ |④---|
88
②口口① |①---|
口③④口 |②---|
口①②口 |③---|
④口口③ |④---|
89
口②①口 |①---|
②口口① |②---|
口④③口 |③---|
④口口③ |④---|
90
口②①口 |①---|
④口口③ |②---|
③口口④ |③---|
口①②口 |④---|
91
②口口① |①---|
口②①口 |②---|
口④③口 |③---|
④口口③ |④---|
92
口口口口 |----|
口口口口 |----|
口口口口 |----|
口口口口 |----|
93
口口①口 |----|
口口②口 |----|
口口③口 |----|
口口④口 |①②③④|
94
口口口口 |①---|
口口口口 |----|
口口口口 |----|
口①口口 |----|
95
口口①口 |----|
口②口口 |①---|
口口③口 |②---|
口口口口 |③---|
96
口口口口 |①---|
口口口口 |--②-|
口口口口 |----|
口①②口 |----|
97
⑧口口⑦ |①-②-|
⑥口口⑤ |③-④-|
④口口③ |⑤-⑥-|
②口口① |⑦-⑧-|
98
口口①口 |----|
口口②口 |----|
口口③口 |----|
口口④口 |①②③④|
99
口口口口 |①---|
①①口口 |----|
①①口口 |----|
口口口口 |----|

不確定度: 0

最終更新:2015年05月07日 16:07