Stay with Me
加藤浩義

EXTREME

Level: 9
BPM: 137
Notes: 752

1
口口口口 |----|
口口口口 |----|
口口口口 |----|
口口口口 |----|
2
②口②口 |①---|
口①①口 |②-③-|
①③口①
口①①口

⑥④口④
⑥口口口
⑥口⑤口 |④-⑤-|
口口口口 |--⑥-|
3
口口口① |--①-|
口口口① |----|
口口口① |----|
口口口口 |----|
4
口口口口 |----|
口口口口 |----|
口口口口 |----|
口口口口 |----|
5
口口口口 |①---|
口①①口 |----|
口①①口 |----|
口①①口 |----|
6
口①口① |----|
口口②口 |①-②-|
口口口口
口口口口

③口③⑤
口④口⑤
口口口⑤ |③-④-|
口口口口 |--⑤-|
7
①口口口 |--①-|
①口口口 |----|
①口口口 |----|
口口口口 |----|
8
口口口口 |----|
口口口口 |----|
口口口口 |----|
口口口口 |----|
9
口口口口 |----|
口口口口 |----|
口口口口 |----|
口口口口 |----|
10
①口口口 |①---|
口①①③ |②-③-|
口口②①
口口口口

⑤⑥④口
口口口口
口⑤⑥口 |④-⑤-|
口口口口 |--⑥-|
11
口口①口 |--①-|
②③④⑤ |②③④⑤|
口口口①
口口口口

口口口口
口口口口
⑩⑪⑫⑬ |⑥⑦⑧⑨|
⑥⑦⑧⑨ |⑩⑪⑫⑬|
12
①②③④ |①②③④|
⑤⑥⑦⑧ |⑤⑥⑦⑧|
⑬⑭⑮⑯ |⑨⑩⑪⑫|
⑨⑩⑪⑫ |⑬⑭⑮⑯|
13
①②③④ |①②③④|
⑤⑥⑦⑧ |⑤⑥⑦⑧|
⑬口口口 |⑨⑩⑪⑫|
⑨⑩⑪⑫ |⑬---|
14
①③①口 |①---|
②①口口 |②-③-|
口口口口
口口口口

口口⑥口
口口④⑤
口口⑥口 |④-⑤-|
口口口⑤ |--⑥-|
15
口③口⑤ |--①-|
②①④口 |②③④⑤|
口口口口
口①口口

口口⑧口
口口口⑨
⑩⑦⑫口 |⑥⑦⑧⑨|
⑥⑪口⑬ |⑩⑪⑫⑬|
16
①口⑦口 |①②③④|
⑤②③⑧ |⑤⑥⑦⑧|
口⑥口④
口口口口

⑬口口⑯
口⑭⑮口
⑨口⑪口 |⑨⑩⑪⑫|
口⑩口⑫ |⑬⑭⑮⑯|
17
口口口口 |①-②-|
①口口④ |③-④-|
口口口②
①③口④

⑤口⑥⑦
口口⑨口
⑤口口⑧ |⑤-⑥-|
口口口口 |⑦-⑧⑨|
18
⑨⑥⑮⑧ |①②③④|
⑬②⑪④ |⑤⑥⑦⑧|
⑤⑩⑦⑯ |⑨⑩⑪⑫|
①⑭③⑫ |⑬⑭⑮⑯|
19
口⑥口④ |①②③④|
口②口⑧ |⑤⑥⑦⑧|
⑤口③口
①口⑦口

口口口⑯
⑨⑭⑪口
口⑩⑮⑫ |⑨⑩⑪⑫|
⑬口口口 |⑬⑭⑮⑯|
20
⑤口③口 |①②③④|
口口⑦④ |⑤⑥⑦⑧|
①⑥口口
口②口⑧

口⑭口口
口⑩口⑯
⑬口⑮⑫ |⑨⑩⑪⑫|
⑨口⑪口 |⑬⑭⑮⑯|
21
⑬⑩口⑫ |①②③④|
①⑥③口 |⑤⑥⑦⑧|
⑨口⑪⑧ |⑨⑩⑪⑫|
⑤②⑦④ |⑬---|
22
口口口口 |①---|
①②③④ |②---|
口口口口 |③---|
①②③④ |④---|
23
①②③④ |①---|
口口口口 |②---|
①②③④ |③---|
口口口口 |④---|
24
口口⑦⑧ |①-②-|
口口口口 |③-④-|
⑤⑥口口 |⑤-⑥-|
①②③④ |⑦-⑧-|
25
口口口口 |①②③④|
口口⑦⑧ |⑤⑥⑦⑧|
⑤⑥③④
①②口口

口口⑪⑫
⑨⑩口口
口口口口 |⑨⑩⑪⑫|
口⑬⑬口 |⑬---|
26
⑥⑦⑤口 |①-②-|
口⑥口④ |③-④-|
⑦②③口 |⑤-⑥-|
①口口口 |--⑦-|
27
口口①口 |--①-|
口口口⑤ |②③④⑤|
口③④①
②口口口

⑩⑦⑫⑨
⑥⑪⑧口
口口口⑬ |⑥⑦⑧⑨|
口口口口 |⑩⑪⑫⑬|
28
⑨⑥⑪⑧ |①②③④|
⑤⑩⑦⑫ |⑤⑥⑦⑧|
①⑭③⑯ |⑨⑩⑪⑫|
⑬②⑮④ |⑬⑭⑮⑯|
29
口②口④ |①②③④|
⑤口⑦口 |⑤⑥⑦⑧|
①口③口
口⑥口⑧

⑨口⑪口
口⑩口⑫
⑬口口口 |⑨⑩⑪⑫|
口口口口 |⑬---|
30
口口口口 |①---|
①口口③ |②-③-|
口口②口
①口口口

口⑤④⑥
口口口口
⑤口⑥口 |④-⑤-|
口口口口 |--⑥-|
31
口⑦①⑨ |--①-|
⑥③⑧⑤ |②③④⑤|
⑩①⑫口 |⑥⑦⑧⑨|
②⑪④⑬ |⑩⑪⑫⑬|
32
口⑥口⑧ |①②③④|
⑤口⑦口 |⑤⑥⑦⑧|
口②口④
①口③口

口口口口
口⑭口⑯
⑨口⑪口 |⑨⑩⑪⑫|
⑬⑩⑮⑫ |⑬⑭⑮⑯|
33
①②③④ |①②③④|
口口口口 |⑤⑥⑦⑧|
⑤⑥⑦⑧
口口口口

⑰⑱⑲⑳
⑬⑭⑮⑯
口口口口 |⑨⑩⑪⑫|
⑨⑩⑪⑫ |⑬⑭⑮⑯⑰⑱⑲⑳|
34
口口口口 |①-②-|
口口口口 |③-④-|
①⑥②⑤ |⑤-⑥-|
③⑧④⑦ |⑦-⑧-|
35
④⑤口⑥ |①-②-|
③⑦口⑧ |③-④-|
口口②口 |⑤-⑥-|
口口①口 |⑦-⑧-|
36
①口②口 |①-②-|
③口④口 |③-④-|
⑤口⑥口 |⑤-⑥-|
⑦口⑧口 |⑦-⑧-|
37
⑥口⑤④ |①-②-|
⑧口⑦③ |③-④-|
口②口口 |⑤-⑥-|
口①口口 |⑦-⑧-|
38
口②口① |①-②-|
口④口③ |③-④-|
口⑥口⑤ |⑤-⑥-|
口⑧口⑦ |⑦-⑧-|
39
④⑤口⑥ |①-②-|
③⑦口⑧ |③-④-|
口口②口 |⑤-⑥-|
口口①口 |⑦-⑧-|
40
①口②口 |①-②-|
③口④口 |③-④-|
⑤口⑥口 |⑤-⑥-|
⑦口⑧口 |⑦-⑧-|
41
口口口④ |①-②-|
口口口③ |③-④-|
口②口口
口①口口

⑤口口口
⑥口口口
口⑦口口 |⑤-⑥-|
口⑧口口 |⑦-⑧-|
42
口②⑤① |①-②-|
口④口③ |③-④-|
口⑥①⑤ |⑤-⑥-|
口⑧口⑦ |⑦-⑧-|
43
④口口口 |①-②-|
③口口口 |③-④-|
口口②口
口口①口

口口口⑤
口口⑥口
口口⑦口 |⑤-⑥-|
口⑧口口 |⑦-⑧-|
44
①⑤②口 |①-②-|
③口④口 |③-④-|
⑤①⑥口 |⑤-⑥-|
⑦口⑧口 |⑦-⑧-|
45
口口口④ |①-②-|
口口口③ |③-④-|
口②口口
口①口口

⑤口口口
口⑥口口
口⑦口口 |⑤-⑥-|
口口⑧口 |⑦-⑧-|
46
口②①① |①-②-|
口④③③ |③-④-|
口⑥⑤⑤ |⑤-⑥-|
口⑧⑦⑦ |⑦-⑧-|
47
①①②口 |①-②-|
③③④口 |③-④-|
⑤⑤⑥口 |⑤-⑥-|
⑦⑦⑧口 |⑦-⑧-|
48
①②④③ |①②③④|
口口⑧⑦ |⑤⑥⑦⑧|
⑤⑥口口
口口口口

⑬⑭口口
⑨⑩口口
口口⑫⑪ |⑨⑩⑪⑫|
口口⑯⑮ |⑬⑭⑮⑯|
49
⑦⑧③② |①-②-|
⑥⑤④① |③-④-|
①④⑤⑥ |⑤-⑥-|
②③⑧⑦ |⑦-⑧-|
50
⑥⑧④② |①-②-|
⑥⑧④② |③-④-|
口口口口 |⑤-⑥-|
①③⑦⑤ |⑦-⑧-|
51
⑤⑤③④ |①-②-|
⑥⑥④③ |③-④-|
②①⑦⑦ |⑤-⑥-|
①②⑧⑧ |⑦-⑧-|
52
⑥⑧④② |①-②-|
⑥⑧④② |③-④-|
①③⑦⑤ |⑤-⑥-|
①③⑦⑤ |⑦-⑧-|
53
⑦⑥②③ |①-②-|
⑧⑤①④ |③-④-|
④①⑤⑧ |⑤-⑥-|
③②⑥⑦ |⑦-⑧-|
54
⑧④②⑥ |①-②-|
口口口口 |③-④-|
⑧④②⑥ |⑤-⑥-|
⑤①③⑦ |⑦-⑧-|
55
⑧②③④ |①-②-|
⑦①⑤⑥ |③-④-|
⑥⑤①⑦ |⑤-⑥-|
④③②⑧ |⑦-⑧-|
56
⑥②④⑧ |①-②-|
口口口口 |③-④-|
⑥②④⑧ |⑤-⑥-|
⑤①③⑦ |⑦-⑧-|
57
口⑦⑦口 |①-②-|
①②②① |③-④-|
⑥③③⑥ |⑤-⑥-|
⑤④④⑤ |⑦---|
58
④⑤口口 |①-②③|
①②口③ |④-⑤-|
⑤④口口
②①口口

口口⑦⑥
口⑧口口
口口⑥⑦ |⑥-⑦-|
⑨⑨⑧口 |⑧-⑨-|
59
④口口口 |①-②-|
③口①② |③-④-|
②①口③
口口口④

口⑤⑥⑦
口口口⑧
⑧口口口 |⑤-⑥-|
⑦⑥⑤口 |⑦-⑧-|
60
口口口口 |①--②|
②①③口 |--③-|
口③①②
口口口口

口⑥口④
⑦⑤口④
④口⑤⑦ |④-⑤-|
④口⑥口 |⑥-⑦-|
61
②口①口 |①--②|
口口③口 |--③-|
口③口口
口①口②

口⑤⑤④
④口口口
口口口④ |④---|
④口口口 |⑤---|
62
口口⑤④ |①-②③|
③口②① |④-⑤-|
口口④⑤
口口①②

⑥⑦口口
口口口⑧
⑦⑥口口 |⑥-⑦-|
⑨⑨⑧口 |⑧-⑨-|
63
③④口口 |①-②-|
②①口口 |③-④-|
口口①②
口口④③

口口⑤⑥
⑧口口⑦
⑦口口⑧ |⑤-⑥-|
⑥⑤口口 |⑦-⑧-|
64
口②④④ |①--②|
口①③口 |--③-|
口③①口 |④---|
④④②口 |----|
65
②②口④ |①--②|
④①③① |--③-|
①③①④ |④---|
④口②② |----|
66
①③①③ |----|
口⑤口口 |①-②-|
⑤②④口 |③-④-|
口⑤口口 |--⑤-|
67
口口口口 |--①-|
口口①口 |----|
口口口① |----|
口口①口 |----|

不確定度: 0

最終更新:2015年05月07日 02:28