Too Late Snow
movies (moimoi × Xceon × Dai.)

BASIC

Level: 3
BPM: 138
Notes: 236

1
口口口口 |----|
口口口口 |----|
口口口口 |----|
口①口口 |①---|
2
口口口口 |①---|
口②口口 |----|
口口口口 |②---|
口口①口 |----|
3
口口口口 |①---|
口口①口 |②---|
口②口口 |③---|
③口④口 |④---|
4
口口口口 |①---|
口口②口 |----|
口口口口 |②---|
口①口口 |----|
5
口口口口 |①---|
口①口口 |②---|
口口②口 |③---|
口④口③ |④---|
6
口口口口 |①---|
口口②口 |----|
口口口口 |②---|
口口①口 |----|
7
口口口口 |①---|
口①口口 |②---|
口口②口 |③---|
口④口③ |④---|
8
口口口口 |①---|
口口②口 |----|
口口口口 |②---|
口口①口 |----|
9
③口口③ |①---|
②口口② |②---|
口①①口 |③---|
口口口口 |----|
10
口口口口 |①---|
口口口口 |----|
①②口口 |②---|
口口口口 |----|
11
口口口口 |①---|
口口口口 |----|
口口①② |②---|
口口口口 |----|
12
口口口口 |①---|
①②口口 |----|
口口口口 |②---|
口口口口 |----|
13
口口口口 |①---|
口口①② |----|
口③口口 |②---|
口口口口 |③---|
14
口口①口 |①---|
口口②口 |②---|
口口③口 |③---|
口口④口 |④---|
15
口口口口 |①---|
口①口口 |②---|
口②④口 |③---|
口③口口 |④---|
16
口①口口 |①---|
口②口口 |②---|
口③口口 |③---|
口④口口 |④---|
17
口口口口 |①---|
口口①① |②---|
口④②② |③---|
口口③③ |④---|
18
口口①口 |①---|
口口②口 |②---|
口口③口 |③---|
口口④口 |④---|
19
口口口口 |①---|
口①口口 |②---|
口②④口 |③---|
口③口口 |④---|
20
口口口口 |①---|
①①口口 |----|
②②口口 |②---|
口口口口 |----|
21
口口口口 |①---|
口③③口 |②---|
口②②口 |③---|
口①①口 |----|
22
①口口② |①---|
口口口口 |----|
口口口口 |②---|
口口口口 |----|
23
口口口口 |①---|
口①口口 |----|
口口②口 |②---|
口口口口 |----|
24
口口口口 |①---|
口口口口 |----|
口口口口 |②---|
口①②口 |----|
25
口口口口 |①---|
口口②口 |----|
口①口口 |②---|
口口口口 |----|
26
口①口口 |①---|
口口口口 |----|
口口口口 |----|
口口口口 |----|
27
口口口① |①---|
②口口口 |----|
口口口口 |②---|
口口口口 |----|
28
口口口口 |①---|
口口口口 |----|
口口口① |②---|
②口口口 |----|
29
口口口口 |①---|
口口口口 |----|
②口口口 |②---|
口口口① |----|
30
口口口口 |①---|
口口口① |----|
口口口口 |----|
口口口口 |----|
31
口口口口 |①---|
口②②口 |----|
口①①口 |②---|
口口口口 |----|
32
口口口口 |①---|
②口口② |----|
①口口① |②---|
口口口口 |----|
33
口②②口 |①---|
口口口口 |----|
口口口口 |②---|
口①①口 |----|
34
口口口口 |①---|
口①①口 |----|
口口口口 |----|
口口口口 |----|
35
口口口口 |①---|
②口口② |----|
①口口① |②---|
口口口口 |----|
36
口口口口 |①---|
口②②口 |----|
口①①口 |②---|
口口口口 |----|
37
口口口口 |①---|
口口口口 |----|
②口口② |②---|
①口口① |----|
38
口口口口 |①---|
①口口① |----|
口口口口 |----|
口口口口 |----|
39
口①①口 |①---|
口②②口 |----|
口③口口 |②---|
口口口口 |③---|
40
口口①口 |①---|
口口②口 |②---|
口口③口 |③---|
口口④口 |④---|
41
口口口口 |①---|
口①口口 |②---|
口②④口 |③---|
口③口口 |④---|
42
口①口口 |①---|
口②口口 |②---|
口③口口 |③---|
口④口口 |④---|
43
口口口口 |①---|
口口①① |②---|
口④②② |③---|
口口③③ |④---|
44
口口①口 |①---|
口口②口 |②---|
口口③口 |③---|
口口④口 |④---|
45
口口口口 |①---|
口①口口 |②---|
口②④口 |③---|
口③口口 |④---|
46
口口口口 |①---|
①①口口 |----|
②②口口 |②---|
口口口口 |----|
47
口口口口 |①---|
口③③口 |②---|
口②②口 |③---|
口①①口 |----|
48
①口口口 |①---|
口口口口 |----|
口口口口 |----|
口口口口 |----|
49
口口口口 |①---|
口①口口 |----|
口口口口 |----|
口口口口 |----|
50
口口口口 |①---|
口口口口 |----|
口口①口 |----|
口口口口 |----|
51
口口口口 |①---|
口口口口 |----|
口口口口 |----|
口口口① |----|
52
口口口口 |①---|
口口口口 |----|
口①①口 |----|
口口②口 |②---|
53
口口口口 |①---|
口口②口 |----|
口口口口 |②---|
口①口口 |----|
54
口口口口 |①---|
口①口口 |②---|
口口②口 |③---|
口④口③ |④---|
55
口口口口 |①---|
口②口口 |----|
口口口口 |②---|
口口①口 |----|
56
口口口口 |①---|
口口①口 |②---|
口②口口 |③---|
③口④口 |④---|
57
口口口口 |①---|
口口口④ |②---|
③口口② |③---|
口①口口 |④---|
58
③口④② |①---|
①口口口 |②---|
口口口口 |③---|
口口口口 |④---|
59
口①口口 |①---|
口③②口 |②---|
口口④口 |③---|
口口口口 |④---|
60
口口口口 |①---|
口口口口 |②---|
口①口口 |③---|
口③②口 |----|
61
口口口口 |①---|
口口口口 |----|
①口口① |----|
口口口口 |----|
62
口口口口 |----|
口口口口 |----|
口口口口
口口口口
63
口口口口 |----|
①①①① |①---|
口口②口 |②---|
口口③口 |③---|
64
口口口口 |①---|
口①口口 |②---|
口②④口 |③---|
口③口口 |④---|
65
口①口口 |①---|
口②口口 |②---|
口③口口 |③---|
口④口口 |④---|
66
口口口口 |①---|
口口①① |②---|
口④②② |③---|
口口③③ |④---|
67
口口①口 |①---|
口口②口 |②---|
口口③口 |③---|
口口④口 |④---|
68
口口口口 |①---|
口①口口 |②---|
口②④口 |③---|
口③口口 |④---|
69
口①口口 |①---|
口②口口 |②---|
口③口口 |③---|
口④口口 |④---|
70
口口口口 |①---|
③口口③ |②---|
②口口② |③---|
①口口① |----|
71
口口口口 |①---|
口口口口 |----|
口①①口 |----|
口口口口 |----|

不確定度: 0

最終更新:2015年05月24日 19:14