Ausretious#1-まどろみ、或いは嘆色の夢-
EOOZ

BASIC

Level: 5
BPM: 168
Notes: 358

1
口口口口 |--①-|
口①②口 |----|
口口口口 |②---|
口口口口 |----|
2
口口口口 |①---|
口口口口 |----|
口①①口 |----|
口口口口 |----|
3
口口口口 |----|
口口口口 |----|
口口口口 |----|
口口口口 |----|
4
口口口口 |----|
口口口口 |----|
口口口口 |----|
口口口口 |----|
5
口①②口 |--①-|
口①②口 |----|
口口口口 |②---|
口口口口 |----|
6
口口口口 |①---|
①口口① |----|
①口口① |②---|
②口口口 |----|
7
口口口口 |①---|
口口口口 |----|
口口口口 |②---|
口①②口 |----|
8
口口口口 |①---|
口口口口 |----|
口②口口 |②---|
口口口① |----|
9
口②③口 |①-②-|
口②③口 |----|
口口①口 |③---|
口口口口 |----|
10
口口口口 |①---|
①口口① |----|
①口口① |②---|
②口口口 |----|
11
口口口口 |①---|
口口口口 |----|
口口口口 |②---|
口①②口 |----|
12
口口口口 |①---|
口口口口 |----|
口②口口 |②---|
口口口① |----|
13
口口口口 |①---|
口口口口 |----|
口口①口 |----|
口口口口 |----|
14
①口口口 |①---|
②口口口 |②---|
③口④口 |③-④-|
⑤口⑥口 |⑤-⑥-|
15
口①口口 |①---|
口②口口 |②---|
口③口④ |③-④-|
口⑤口⑥ |⑤-⑥-|
16
⑤口⑥口 |①---|
③口④口 |②---|
②口口口 |③-④-|
①口口口 |⑤-⑥-|
17
口⑤口⑥ |①---|
口③口④ |②---|
口②口口 |③-④-|
口①口口 |⑤-⑥-|
18
口口口口 |----|
口口口口 |----|
口口口口 |----|
口口口口 |----|
19
口口①① |①---|
口口②口 |----|
口口口口 |②---|
口口口口
20
口口口口 |①---|
口口口口 |②---|
口①口口
口口②口
21
①①口口 |①---|
口②口口 |----|
口口口口 |②---|
口口口口
22
口口口口 |①---|
口口口口 |----|
口口①口
口口口口
23
口口口口 |①---|
口口②口 |----|
口口口口 |②---|
①①口口
24
口口口口 |①---|
口口口口 |②---|
口①口口
口口②口
25
口口口口 |①---|
口口口口 |----|
口口口口 |----|
①口口口
26
口口口口 |----|
口口口口 |----|
口口口口
口口口口
27
口口①① |①---|
口口②口 |----|
口口口口 |②---|
口口口口
28
口口口口 |①---|
口口口口 |②---|
口①口口
口口②口
29
①①口口 |①---|
口口②口 |----|
口口口口 |②---|
口口口口
30
口口口口 |①---|
口①口口 |----|
口口口口
口口口口
31
口口口口 |----|
口口口口 |①---|
①口口口 |②---|
口②口口
32
口口口口 |①---|
口口口② |②---|
口口①口
口口口口
33
口口口口 |①---|
口①口口 |----|
口口口口 |----|
口口口口
34
口口口口 |----|
口口口口 |----|
口口口口
口口口口
35
①①口口 |①---|
口②口口 |②---|
口③口口 |③---|
口口口口
36
口口口口 |①---|
口口口口 |②---|
口口①口
口口②口
37
口口①① |①---|
口③②口 |②---|
口口口口 |③---|
口口口口
38
口口口口 |①---|
口口口口 |②---|
①口口口
口②口口
39
口口口口 |①---|
口③口口 |②---|
口②口口 |③---|
口口①①
40
①②口口 |①---|
口口口口 |②---|
口口口口
口口口口
41
口口①口 |①---|
口口口口 |②---|
口②口口 |③---|
口口③口
42
口口口口 |①---|
口口口口 |②---|
口口②口
口①口口
43
①①口口 |①---|
口②③口 |②---|
口口口口 |③---|
口口口口
44
口口口口 |①---|
口口口口 |②---|
口①口口
口口口②
45
①①口口 |①---|
口②③口 |②---|
口口口口 |③---|
口口口口
46
口口口口 |①---|
口口口口 |②---|
口②①口
口口口口
47
口口②② |①---|
口口③③ |②---|
口口口口 |③---|
口①口口
48
口口口口 |①---|
口口口口 |②---|
口口①①
口口②②
49
口口口口 |①---|
口③口口 |②---|
口②口口 |③---|
①口口口
50
①口口口 |①---|
口口口口 |②---|
③口口口 |③---|
口②口口
51
口口①① |①---|
口口①① |----|
②口口口 |②---|
②口口口
52
口口口口 |①---|
口口口口 |②---|
口①②口
口①②口
53
口口口口 |①---|
口口口口 |----|
口口口① |----|
口口口①
54
口口①① |①---|
口口口口 |②---|
口口口口
②②口口
55
②③口口 |①---|
②③口口 |②---|
①①①① |③---|
口口口口
56
口口①② |①---|
口口①② |②---|
口口口口
口口口口
57
口口口口 |①---|
口口口口 |----|
②口口② |②---|
口①①口
58
①口口① |①---|
口②②口 |②---|
口口口口
口口口口
59
口口口口 |①---|
口口口口 |②---|
②①①③ |③---|
②口口③
60
①口口② |①---|
①口口② |②---|
口口口口
口口口口
61
口①①口 |①---|
口口口口 |----|
口②②口 |②---|
口口口口
62
口口口口 |①---|
口①①口 |----|
口口口口
口口口口
63
口口口口 |----|
口口口口 |----|
口口②口 |①---|
口①口口 |②---|
64
口口口口 |①---|
口①口口 |----|
口口口口 |----|
口口口口
65
①口口① |①---|
口口口口 |----|
口口口口 |----|
口口口口
66
口口口口 |①---|
口口口口 |②---|
口①①口 |③---|
口②③④ |④---|
67
口口④③ |①---|
口口口② |②---|
口口口① |③---|
口口口口 |④---|
68
②①口口 |①---|
③口口口 |②---|
④口口口 |③---|
口口口口 |④---|
69
口口口口 |①---|
口口口口 |②---|
口口口口 |③---|
①②③④ |④---|
70
口口口口 |①---|
口①①口 |----|
口①①口 |----|
口口口口
71
③②①口 |①---|
口口口口 |②---|
口口口口 |③---|
口口口口
72
口口口口 |①---|
口①①口 |----|
口①①口 |----|
口口口口
73
口口口口 |①---|
口口口口 |②---|
④口口口 |③---|
③②①口 |④---|
74
口口①口 |①---|
口口②口 |②---|
口口③口 |③---|
口口④口 |④---|
75
口①口口 |①---|
口②口口 |②---|
口③口口 |③---|
口④口口 |④---|
76
口口口① |①---|
口口口② |②---|
口口口③ |③---|
口口口④ |④---|
77
①口口口 |①---|
②口口口 |②---|
③口口口 |③---|
④口口口 |④---|
78
口①①口 |①---|
口②②口 |②---|
口③③口 |③---|
口④④口 |④---|
79
①①①① |①---|
②②②② |②---|
③③③③ |③---|
④④④④ |④---|
80
③③②② |①---|
口①①口 |②---|
口口口口 |----|
口口口口 |③---|
81
口口口口 |----|
口口①① |①---|
②②口口 |②---|
口口③③ |③---|
82
口口④④ |①---|
③③口口 |②---|
口口②② |③---|
①①口口 |④---|
83
口口口口 |①---|
口②②口 |----|
①①①① |②---|
口口口口 |----|
84
①口口① |①---|
口②口口 |----|
口口③口 |②---|
口口口口 |③---|
85
口口④口 |①---|
口口口② |②---|
①口口口 |③---|
口③口口 |④---|
86
①口口② |①---|
口口口口 |②---|
口口口口 |③---|
④口口③ |④---|
87
口口口口 |①---|
口②②口 |----|
①①①① |②---|
口口口口 |----|
88
①口口① |①---|
口口口② |②---|
口④口③ |③-④-|
口⑥口⑤ |⑤-⑥-|
89
口口①口 |①---|
口口②口 |②---|
④口③口 |③-④-|
⑥口⑤口 |⑤-⑥-|
90
口口口① |①---|
口口口② |②---|
口④口③ |③-④-|
口⑥口⑤ |⑤-⑥-|
91
口口①口 |①---|
口口②口 |②---|
口口③口 |③---|
口口口口 |----|
92
①口口口 |①---|
②口口口 |②---|
③口④口 |③-④-|
⑤口⑥口 |⑤-⑥-|
93
口①口口 |①---|
口②口口 |②---|
口③口④ |③-④-|
口⑤口⑥ |⑤-⑥-|
94
①口口口 |①---|
②口口口 |②---|
③口④口 |③-④-|
⑤口⑥口 |⑤-⑥-|
95
口①口口 |①---|
口②口口 |②---|
口③口④ |③-④-|
口⑤口⑥ |⑤-⑥-|
96
口口口口 |①---|
口①①口 |----|
口口口口 |----|
口口口口 |----|
97
口口口口 |----|
口口口口 |----|
口口口口 |----|
口口口口 |----|
98
口口口口 |①---|
口口口口 |----|
口口口口 |----|
①口口口 |----|
99
口口口口 |----|
口口口口 |----|
口口口口 |----|
口口口口 |----|
100
口口口口 |①---|
口口口口 |----|
口口①口 |----|
口口口口 |----|

不確定度: 0

最終更新:2015年11月02日 23:45