トリカゴノ鳳凰 [2]
L.E.D. Vs. 幽閉サテライト
EXTREME
Level: 10
BPM: 185
Notes: 974
1
口口口口 |----|
口口口口 |----|
口口口口 |----|
口口口口 |----|
2
∨⑦⑦⑥ |①-②-|
|口⑤③ |③-④-|
|口②④ |⑤-⑥-|
①口口① |--⑦-|
3
口口口口 |--①-|
口④④口 |②---|
口②①口 |③---|
口③③口 |--④-|
4
⑧口④口 |①-②-|
口⑦口③ |③-④-|
⑥口②口 |⑤-⑥-|
①⑤口① |⑦-⑧-|
5
口口口口 |①-②-|
③口口③ |--③-|
④②口④ |--④-|
⑤口①⑤ |--⑤-|
6
口口③⑥ |①-②-|
口口②④ |③---|
口口①⑤ |④-⑤-|
口①<口 |--⑥-|
7
口口口口 |--①-|
口④①口 |②---|
口③②口 |③---|
口口口口 |--④-|
8
④③②① |①-②-|
口⑧口⑤ |③-④-|
口⑦口⑥ |⑤-⑥-|
口口口口 |⑦-⑧-|
9
口口①⑤ |①②--|
③口②⑥ |③④--|
④⑦⑦口 |⑤⑥--|
⑦①口⑦ |⑦---|
10
①<口口 |①-②-|
⑤③②口 |③-④-|
口⑦⑧④ |⑤-⑥-|
口口⑥口 |⑦-⑧-|
11
①口>① |①-②-|
④口③口 |③-④-|
②口口口
口口口口
口口口⑤
口口口⑧
口⑦口⑥ |⑤-⑥-|
⑤<口口 |⑦-⑧-|
12
④⑧口口 |①-②-|
③⑦口口 |③-④-|
②⑥⑤口 |⑤-⑥-|
①口>① |⑦-⑧-|
13
口口②口 |①-②-|
③口①口 |--③-|
③口口口
口口口口
口口口口
口口⑤④
口⑤口④ |--④-|
口口口④ |--⑤-|
14
①<口② |①-②-|
⑤③口⑧ |③-④-|
口⑦④口 |⑤-⑥-|
口口⑥口 |⑦-⑧-|
15
①④>① |①-②-|
口口③口 |③-④-|
②口口口
口口口口
口口口⑤
口⑦口口
口口⑧⑥ |⑤-⑥-|
⑤<口口 |⑦-⑧-|
16
口口口口 |①---|
口口口口 |----|
口口口口 |----|
①口>① |----|
17
口口口口 |①---|
口口②口 |--②-|
口口③口 |--③-|
①<④① |--④-|
18
③⑧⑦② |①-②-|
⑥口口④ |③-④-|
口口口口 |⑤-⑥-|
①⑤口口 |⑦-⑧-|
19
口口口口 |--①-|
⑤①①口 |②-③-|
②口⑥② |--④-|
口③③④ |⑤-⑥-|
20
①①③③ |①---|
口口口口 |②-③-|
口②口口
口口口口
口⑤口口
口口口口
④口口④ |--④-|
口口口口 |--⑤-|
21
口口④④ |①-②-|
口口∧∧ |③-④-|
口口②口 |----|
口③口① |----|
22
口口①① |①---|
口∨口口 |②---|
∨②口口
②口口口
口口口口
口口>③
口③口口 |③---|
③口>③
④<口口
④<口④
口口口口
口口口④ |④---|
23
①口口② |①---|
①口口口 |②-③-|
口口①①
③口口口
⑤④④口
口口口口
口口口口 |--④-|
口口口口 |--⑤-|
24
⑤④④⑤ |①---|
③口口② |②-③-|
口口口口 |--④-|
口口口① |--⑤-|
25
口口口口 |①②③-|
口①①口 |----|
口②②口
>③③<
口⑦⑥口
口口口口
⑤口口口 |④-⑤-|
口④④口 |⑥-⑦-|
26
口口口∨ |①---|
口口口| |----|
口口口①
口口口口
口口口口
口口口口
口口口② |----|
口口口口 |--②-|
27
①⑥②① |--①-|
⑤⑦③⑤ |②-③-|
口②⑥口 |④-⑤-|
④③⑦④ |⑥-⑦-|
28
①⑤②① |①---|
口口③口 |②-③-|
口②口⑤ |--④-|
④③口④ |--⑤-|
29
③口口① |①-②-|
①②④< |③-④-|
>④②口 |----|
口口③口 |----|
30
②②口口 |①---|
∧∧①口 |②---|
口①口口
口口口口
③③口口
口口>③
口口口口 |③---|
口口③<
口口口口
∨口口④
④∨口口
口④④口 |④---|
31
口口>① |①---|
口口口口 |----|
①口>①
口①口口
②口口②
②口口口
口④③② |②---|
口口口口 |③-④-|
32
口口口口 |①---|
口口口口 |----|
口口口口
①<>①
口口口口
③口口④
②口口② |②---|
②口口② |③-④-|
33
>③③< |①②③-|
口①①口 |----|
口②②口
口口口口
口④④口
口口⑦口
口口口⑤ |④-⑤-|
⑥口口口 |⑥-⑦-|
34
①――< |①-②-|
口口口口
②口口口
口①口口
口④⑤口
③口口⑥ |③-④-|
口口口⑦ |⑤-⑥-|
口口⑧口 |⑦-⑧-|
35
①④口口 |①-②-|
③口∨口 |③-④-|
②口①口
口①口口
口口⑤口
口⑤口⑥
口∧⑤⑦ |⑤-⑥-|
口口⑧口 |⑦-⑧-|
36
口④口∨ |①-②-|
③①口| |③-④-|
②口口|
口①口①
口口⑤口
口口口⑥
口口口⑦ |⑤-⑥-|
口口⑧口 |⑦-⑧-|
37
口④⑤口 |①-②-|
③⑤<⑥ |③-④-|
②口口口 |⑤-⑥-|
口①口④
口口口口
口⑦口口
口>⑦⑦
口口⑧口 |⑦-⑧-|
38
∨口口口 |①-|
|口口口
|口①口
①①口口
口④⑤口 |②-|
③口口⑥ |③-④-|
②口口⑦ |⑤-⑥-|
⑦口⑧口 |⑦-⑧-|
39
⑤④⑤② |①-②-|
③⑦口⑥ |③-④-|
②⑧④⑦ |⑤-⑥-|
⑥①⑧③ |⑦-⑧-|
40
⑦④⑥① |①-②-|
④口①⑥ |③-④-|
②口口⑧ |⑤-⑥-|
⑤②⑧③ |⑦-⑧-|
41
口口口口 |①-②-|
口③②口 |③-④-|
①⑤④口 |⑤-⑥-|
⑦①⑧⑥ |⑦-⑧-|
42
①③③① |①---|
∨②②∨ |②-③-|
④④④④ |④---|
口口口口 |----|
43
②②口口 |①---|
∧∧口口 |②---|
①口口①
口口口口
③③>③
口口③<
口口口口 |③---|
口口口口
口口口④
口口④口
>④口口
>④口口 |④---|
44
口口口口 |①---|
口口口口
口①∨∨
口①①①
口口口口
②口口⑤ |②-③-|
③口口④ |--④-|
口口②② |⑤---|
45
口口口口 |①②③-|
口①①口 |----|
口②②口 |----|
>③③< |----|
46
②<口口 |①---|
口口口口 |②---|
②<口口
口①①口
③口③口
口口∧③
③口口∧ |③---|
口口口口
口口④口
④④口④
||口口
∧∧口口 |④---|
47
口口口口 |①---|
①①口口
口口①<
口口①<
口口口口
口口口口 |②---|
∨∨②口
②②②口
口口∨③
口口③∧
口口口口 |③---|
③③口口
④口口④
口口④口
⑤口口口
口口口口 |④-⑤-|
48
口①①口 |①---|
口||口 |----|
口∧∧口
口口口口
②②②②
口口口口
口③③口 |----|
口口口口 |②-③-|
49
口口口口 |①---|
口口口口 |----|
∨口口∨
①口口①
口口口口
口口口口
口口口口 |----|
②口口② |②---|
50
①①④④ |①-②-|
③⑤<② |③-④-|
⑤<②口 |⑤---|
口③口口 |----|
51
口②口④ |①-②-|
口①口口 |③-④-|
①口口②
③④③口
⑦口⑥口
⑤口口⑧
⑧⑥⑤口 |⑤-⑥-|
口口口⑦ |⑦-⑧-|
52
⑥①⑦④ |①-②-|
⑤③①⑧ |③-④-|
⑧⑦⑤② |⑤-⑥-|
②④③⑥ |⑦-⑧-|
53
口①口② |①---|
∨∨②口 |②-③-|
||口① |----|
③③口口 |----|
54
口口口口 |①---|
口口>② |②---|
口口口口
①①>②
口③口口
③∧口③
∧口口口 |③---|
口口口③
口④④④
④口||
口口∧∧
口口口口 |④---|
55
口口①① |①---|
口口口口
>①口口
>①口口
口口口口
口>②口 |②---|
口②>②
口②口口
③口口口
∧口③口
③口口③ |③---|
∧口口口
④口口口
口⑤口④
④口口口
口口口口 |④-⑤-|
56
口①①口 |①---|
口||口 |----|
口∧∧口
口口口口
②②②②
口口口口
口③③口 |----|
口口口口 |②-③-|
57
口口口口 |①---|
口口口口 |----|
∨口口∨
①口口①
口口口口
口口口口
口口③口 |--②-|
②②②② |--③-|
58
①④⑥⑨ |①-②③|
口口③② |④-⑤-|
⑦口口⑤ |⑥⑦⑧-|
⑧⑩口口 |⑨-⑩-|
59
⑤⑩口⑨ |①-②③|
②③口⑥ |④-⑤-|
口⑧⑦④ |⑥⑦⑧-|
口口口① |⑨-⑩-|
60
口口口口 |①-②③|
⑤③口口 |④-⑤-|
②⑩⑧⑦ |⑥-⑦⑧|
⑨⑥④① |⑨-⑩-|
61
①口③口 |①-②③|
④口②口 |④-⑤-|
⑥口口⑩ |⑥-⑦⑧|
⑨⑧⑦⑤ |⑨-⑩-|
62
①④⑥⑨ |①-②③|
口⑧⑩③ |④-⑤-|
口⑤②口 |⑥-⑦⑧|
⑦口口口 |⑨-⑩-|
63
②口⑩⑨ |①-②③|
③口口⑥ |④-⑤-|
⑦⑧口④ |⑥⑦⑧-|
口⑤口① |⑨-⑩-|
64
口口⑩口 |①-②③|
⑧⑤③口 |④-⑤-|
⑦口口② |⑥-⑦⑧|
①④⑥⑨ |⑨-⑩-|
65
①②口口 |①-②-|
口⑧⑦④ |③-④-|
口⑥口③ |⑤-⑥-|
⑤口口口 |⑦-⑧-|
66
口口口① |①-|
口口口|
口口口|
口口①∧
口⑤④口 |②-|
⑥口口③ |③-④-|
⑦口口② |⑤-⑥-|
口⑧口口 |⑦-⑧-|
67
口口④① |①-②-|
口口口③ |③-④-|
口①<②
口口①口
口⑤口口
⑥>⑤口
⑦⑤口口 |⑤-⑥-|
口⑧口口 |⑦-⑧-|
68
∨口④口 |①-②-|
|口①③ |③-④-|
|口口②
①口①口
口⑤口口
⑥口口口
⑦口口口 |⑤-⑥-|
口⑧口口 |⑦-⑧-|
69
口⑤④⑦ |①-②-|
⑥口⑧③ |③-④-|
⑦口⑥② |⑤-⑥-|
⑤⑧①口 |⑦-⑧-|
70
口口口∨ |①-|
口口口|
口口口|
口口①①
口⑤④口 |②-|
⑥口口③ |③-④-|
⑦口口② |⑤-⑥-|
口⑧口口 |⑦-⑧-|
71
口口口口 |①-②-|
口口口③ |③-|
口①<②
口口①①
口口④④
口口口| |④-|
口④口|
口口口∧
口⑤口⑦
⑥口⑦口
⑦口口口 |⑤-⑥-|
口⑧口口 |⑦-⑧-|
72
口⑥④口 |①-②-|
⑥①⑦④ |③-④-|
⑧③⑤② |⑤-⑥-|
口⑧②口 |⑦-⑧-|
73
口口④口 |①-②-|
口③口口 |③-④-|
口②口①
口口①口
口口口口
口口口⑤
口口⑥口 |⑤-⑥-|
口⑦⑧口 |⑦-⑧-|
74
①③③① |①---|
∨②②∨ |②-③-|
④④④④ |④---|
口口口口 |----|
75
②②口口 |①---|
∧∧口口 |②---|
①口口①
口口口口
③③>③
口口③<
口口口口 |③---|
口口口口
口口口④
口口④口
>④口口
>④口口 |④---|
76
口口口口 |①---|
口口口口
口①∨∨
口①①①
口口口口
②口口⑤ |②-③-|
③口口④ |--④-|
口口②② |⑤---|
77
口口口口 |①②③-|
口①①口 |----|
口②②口 |----|
>③③< |----|
78
②<口口 |①---|
口口口口 |②---|
②<口口
口①①口
③口③口
口口∧③
③口口∧ |③---|
口口口口
口口④口
④④口④
||口口
∧∧口口 |④---|
79
口口口口 |①---|
①①口口
口口①<
口口①<
口口口口
口口口口 |②---|
∨∨②口
②②②口
口口∨③
口口③∧
口口口口 |③---|
③③口口
④口口④
口口④口
⑤口口口
口口口口 |④-⑤-|
80
口①①口 |①---|
口||口 |----|
口∧∧口
口口口口
②②②②
口口口口
口③③口 |----|
口口口口 |②-③-|
81
口口口口 |①---|
口口口口 |----|
∨口口∨
①口口①
口口口口
口口口口
口口口口 |----|
②口口② |②---|
82
①①④④ |①-②-|
③⑤<② |③-④-|
⑤<②口 |⑤---|
口③口口 |----|
83
口②口④ |①-②-|
口①口口 |③-④-|
①口口②
③④③口
⑦口⑥口
⑤口口⑧
⑧⑥⑤口 |⑤-⑥-|
口口口⑦ |⑦-⑧-|
84
⑥①⑦④ |①-②-|
⑤③①⑧ |③-④-|
⑧⑦⑤② |⑤-⑥-|
②④③⑥ |⑦-⑧-|
85
口①口② |①---|
∨∨②口 |②-③-|
||口① |----|
③③口口 |----|
86
口口口口 |①---|
口口>② |②---|
口口口口
①①>②
口③口口
③∧口③
∧口口口 |③---|
口口口③
口④④④
④口||
口口∧∧
口口口口 |④---|
87
口口①① |①---|
口口口口
>①口口
>①口口
口口口口
口>②口 |②---|
口②>②
口②口口
③口口口
∧口③口
③口口③ |③---|
∧口口口
④口口口
口⑤口④
④口口口
口口口口 |④-⑤-|
88
口①①口 |①---|
口||口 |----|
口∧∧口
口口口口
②②②②
口口口口
口③③口 |----|
口口口口 |②-③-|
89
口口口口 |①---|
口口口口 |----|
∨口口∨
①口口①
口口口口
口口口口
口口③口 |--②-|
②②②② |--③-|
90
①④⑥⑨ |①-②③|
⑧⑦口② |④-⑤-|
口⑤口③ |⑥⑦⑧-|
⑩口口口 |⑨-⑩-|
91
⑩③口⑨ |①-②③|
口⑧⑦⑥ |④-⑤-|
②口口④ |⑥⑦⑧-|
口口⑤① |⑨-⑩-|
92
口口⑤口 |①-②③|
口⑦⑧口 |④-⑤-|
口③②⑩ |⑥-⑦⑧|
⑨⑥④① |⑨-⑩-|
93
①口⑦② |①-②③|
④口⑧⑤ |④-⑤-|
⑥口③口 |⑥-⑦⑧|
⑨口⑩口 |⑨-⑩-|
94
①④⑥⑨ |①-②③|
口口口⑤ |④-⑤-|
口⑦口② |⑥-⑦⑧|
⑩⑧口③ |⑨-⑩-|
95
口口口⑨ |①-②③|
②③⑦⑥ |④-⑤-|
口⑧口④ |⑥⑦⑧-|
⑩口⑤① |⑨-⑩-|
96
口③⑤口 |①-②③|
口口口口 |④-⑤-|
口口②口
口口④①
口口口口
口口⑧⑦
口口口口 |⑥-⑦⑧|
⑨⑥口⑩ |⑨-⑩-|
97
①②⑧⑩ |①-②-|
②⑪⑥口 |③-④-|
⑨⑦③④ |⑤⑥⑦⑧|
口⑤④⑫ |⑨⑩⑪⑫|
98
∨⑦⑦⑥ |①-②-|
|口⑤③ |③-④-|
|口②④ |⑤-⑥-|
①口口口 |--⑦-|
99
口④④口 |--①-|
口口口口 |②---|
口②①口 |③---|
口③③口 |--④-|
100
口⑦⑦⑥ |①-②-|
口口⑤③ |③-④-|
口口②④ |⑤-⑥-|
①口口① |--⑦-|
101
④口口④ |--①-|
口口口口 |②---|
口②①口 |③---|
③口口③ |--④-|
不確定度: 0