prop the world
S-C-U

ADVANCED

Level: 7
BPM: 130
Notes: 518

1
口口口口 |----|
口口口口 |----|
口口口口 |----|
口口口口 |----|
2
口口口③ |①---|
②①①口 |--②-|
口口口② |----|
③口口口 |③---|
3
口⑤口口 |①-②-|
①口④② |③④⑤-|
口③口口 |----|
口口口口 |----|
4
②口口③ |①---|
口①①口 |--②-|
口口口② |----|
③口口口 |③---|
5
口口⑤口 |--①②|
口口④口 |③④⑤-|
口③②口 |----|
口①口口 |----|
6
③口口② |①---|
口①①口 |--②-|
②口口口 |----|
口口口③ |③---|
7
口⑤口口 |--①②|
口④口口 |③④⑤-|
口②③口 |----|
口口①口 |----|
8
①口口② |①---|
口③③口 |--②-|
②口口① |----|
口口口口 |③---|
9
口口⑤口 |--①②|
口口④口 |③④⑤-|
口③②口 |----|
口①口口 |----|
10
②⑤⑥口 |①-②-|
③④口口 |③-④-|
口口口⑦ |⑤-⑥-|
口口口① |--⑦-|
11
口口口⑦ |--①-|
口④⑤⑥ |②-③-|
口③口口 |④-⑤-|
①②口口 |⑥-⑦-|
12
口口口口 |--①-|
口⑥口⑤ |②-③-|
口口③④ |④-⑤-|
口口②① |--⑥-|
13
口口口⑦ |--①-|
③④⑤⑥ |②-③-|
②①口口 |④-⑤-|
口口口口 |⑥-⑦-|
14
①口⑥口 |--①-|
②口口口 |②-③-|
③④⑤口 |④-⑤-|
口口口口 |--⑥-|
15
①口口口 |--①-|
②③④⑤ |②-③-|
口口⑦⑥ |④-⑤-|
口口口口 |⑥-⑦-|
16
口口⑥口 |--①-|
②③口口 |②-③-|
①④⑤口 |④-⑤-|
口口口口 |--⑥-|
17
③①口口 |①-②-|
④②口口 |③-④-|
口口口口
口口口口

口⑨⑨口
口口口口
⑤⑥⑦⑧ |⑤⑥⑦⑧|
口口口口 |⑨---|
18
⑥⑥④④ |①--②|
②②口口 |--③-|
⑤⑤③③ |-④--|
①①口口 |⑤--⑥|
19
口口口口 |--①-|
口口②② |-②--|
口口口口
口口①①

④④口口
口口⑤⑤
③③口口 |③--④|
口口口口 |--⑤-|
20
⑥⑥④④ |①--②|
②②口口 |--③-|
⑤⑤③③ |-④--|
①①口口 |⑤--⑥|
21
口口口口 |--①-|
口口②② |-②--|
口口口口
口口①①

④④口口
口口⑤⑤
③③口口 |③--④|
口口口口 |--⑤-|
22
⑥⑥④④ |①--②|
②②口口 |--③-|
⑤⑤③③ |-④--|
①①口口 |⑤--⑥|
23
口口口口 |--①-|
口口②② |-②--|
口口口口
口口①①

④④口口
口口⑤⑤
③③口口 |③--④|
口口口口 |--⑤-|
24
⑥⑥④④ |①--②|
②②口口 |--③-|
⑤⑤③③ |-④--|
①①口口 |⑤--⑥|
25
口口①① |--①-|
口口口口 |-②--|
口口口口
口口②②

④④⑤⑤
口口口口
口口口口 |③--④|
③③口口 |--⑤-|
26
⑤口口口 |①-②③|
②③④口 |④-⑤-|
口①①口
口口口口

口口口⑥
口⑪⑫口
⑦⑧⑨⑩ |⑥-⑦⑧|
口口口口 |⑨⑩⑪⑫|
27
口⑤⑤口 |-①②③|
⑥口口⑦ |④-⑤-|
⑧⑨⑩⑪ |⑥-⑦-|
④③②① |⑧⑨⑩⑪|
28
①口⑦② |--①-|
口⑤⑥口 |②-③-|
口口口口 |④-⑤-|
③口口④ |--⑥⑦|
29
①⑤⑥② |--①-|
口口口口 |②-③-|
口⑤⑥口 |④-⑤-|
③口口④ |--⑥-|
30
⑨⑩⑪⑫ |①-②③|
⑤①①⑥ |④-⑤-|
口⑦⑧口 |⑥-⑦⑧|
口②③④ |⑨⑩⑪⑫|
31
⑦口口口 |-①②③|
①②③④ |④-⑤-|
⑧⑨⑩⑪ |⑥-⑦-|
⑤口口⑥ |⑧⑨⑩⑪|
32
口③④口 |--①-|
⑤⑥⑦⑧ |②-③④|
口⑨⑩⑪ |⑤⑥⑦⑧|
①口口② |-⑨⑩⑪|
33
①口口② |--①-|
⑤③④⑥ |②-③④|
口口口口 |⑤---|
⑤口口⑥ |⑥---|
34
⑤口口口 |①-②③|
②③④口 |④-⑤-|
口①①口
口口口口

口口口⑥
口⑪⑫口
⑦⑧⑨⑩ |⑥-⑦⑧|
口口口口 |⑨⑩⑪⑫|
35
口⑤⑤口 |-①②③|
⑥口口⑦ |④-⑤-|
⑧⑨⑩⑪ |⑥-⑦-|
④③②① |⑧⑨⑩⑪|
36
①口⑦② |--①-|
口⑤⑥口 |②-③-|
口口口口 |④-⑤-|
③口口④ |--⑥⑦|
37
①⑤⑥② |--①-|
口口口口 |②-③-|
口⑤⑥口 |④-⑤-|
③口口④ |--⑥-|
38
⑨⑩⑪⑫ |①-②③|
⑤①①⑥ |④-⑤-|
口⑦⑧口 |⑥-⑦⑧|
口②③④ |⑨⑩⑪⑫|
39
⑦口口口 |-①②③|
①②③④ |④-⑤-|
⑧⑨⑩⑪ |⑥-⑦-|
⑤口口⑥ |⑧⑨⑩⑪|
40
口③④口 |--①-|
⑤⑥⑦⑧ |②-③④|
口⑨⑩⑪ |⑤⑥⑦⑧|
①口口② |-⑨⑩⑪|
41
①口口② |--①-|
⑤③④⑥ |②-③④|
口口口口 |⑤---|
⑤口口⑥ |⑥---|
42
①④口① |①-②-|
口口③口 |③-④-|
口②口口
口口口口

⑨口口口
口口口⑦
⑧口口⑥ |⑤-⑥⑦|
⑤口口⑤ |-⑧-⑨|
43
口②口① |--①-|
⑤③口⑥ |②③④-|
⑦④口⑧ |⑤-⑥-|
口口口口 |⑦-⑧-|
44
口④口⑥ |--①-|
口②③⑤ |②-③-|
⑦口①⑧ |④-⑤⑥|
口口口口 |-⑦-⑧|
45
⑦口口口 |--①-|
⑥②①口 |②-③-|
⑤④③口 |④-⑤-|
口口口口 |⑥-⑦-|
46
口④⑥⑤ |--①-|
口③②口 |②-③-|
⑦口①⑧ |④-⑤⑥|
口口口口 |-⑦-⑧|
47
⑤②口⑥ |--①-|
⑦③口⑧ |②③④-|
口④口口 |⑤-⑥-|
口①①口 |⑦-⑧-|
48
⑧口口⑥ |--①-|
口④③⑤ |②-③-|
⑦②①口 |④-⑤⑥|
口口口口 |-⑦-⑧|
49
⑦口①⑦ |--①-|
④②⑤③ |②-③-|
口⑤①口 |④-⑤-|
⑥口口⑥ |⑥-⑦-|
50
⑧③③⑧ |--①-|
④①⑥口 |②-③-|
口⑤①④ |④-⑤⑥|
⑦②②⑦ |-⑦-⑧|
51
口①①⑧ |--①-|
⑦②口口 |②③④-|
口口③⑥ |⑤-⑥-|
⑤④口口 |⑦-⑧-|
52
①口口口 |--①-|
口口口② |②-③-|
③口口口
口口口口

⑧口口⑧
口口⑥口
口口⑤口 |④-⑤⑥|
口⑦⑦④ |-⑦-⑧|
53
⑦口口⑦ |--①-|
⑥②③⑥ |②-③-|
⑤④口⑤ |④-⑤-|
①口口① |⑥-⑦-|
54
口①口口 |--①-|
口口②口 |②-③-|
口③口口
口口口口

④⑧⑧④
口口口口
口口⑥口 |④-⑤⑥|
⑦口⑤⑦ |-⑦-⑧|
55
口口⑧口 |--①-|
⑦②口口 |②③④-|
①③⑥① |⑤-⑥-|
⑤④口口 |⑦-⑧-|
56
④④⑦⑦ |--①-|
③口口口 |②-③-|
②②⑥⑥ |④-⑤⑥|
①口⑧⑤ |-⑦-⑧|
57
④⑤⑤④ |--①-|
口口①① |②-③-|
⑤②②⑤ |④-⑤-|
③⑥⑥③ |--⑥-|
58
口口口口 |①---|
①①①① |----|
口口口口 |----|
口口口口 |----|

不確定度: 0

最終更新:2015年02月20日 16:38