MITOれて!いばらきっしゅだ~りん
水戸ご当地アイドル(仮)
ADVANCED
Level: 7
BPM: 167
Notes: 413
1
口口口口 |----|
口口口口 |----|
口口口口 |----|
口口口口 |----|
2
口口⑤口 |----|
口④口口 |--①-|
口②③口 |②-③-|
口①口口 |④-⑤-|
3
口口口口 |①---|
①口④① |--②-|
口③口口 |③---|
口②口口 |--④-|
4
口口口口 |①---|
①口口① |②---|
③口②③ |③---|
口口④口 |④---|
5
口口②口 |①---|
口③口口 |----|
口④口口 |②-③-|
①⑤口① |④-⑤-|
6
口口口口 |----|
③口口口 |----|
①③口② |--①-|
口①口口 |②-③-|
7
口③口口 |①---|
口口②① |----|
口口口口 |②---|
口口口口 |--③-|
8
口口口口 |①--②|
口①口口 |--③-|
口口③③
口口②②
口口④口
口⑤⑤口
口④口口 |④---|
口口口口 |⑤---|
9
口口口口 |①---|
口口④口 |②---|
②⑤②⑤ |③-④-|
①①③口 |--⑤-|
10
口口口口 |--①-|
④③③④ |--②-|
②口①口 |③---|
口口口口 |④---|
11
口口口口 |----|
口④口口 |①-②-|
⑤②⑤① |③-④-|
口③口口 |--⑤-|
12
③口口③ |--①-|
④②②④ |--②-|
口①口口 |③---|
口口口口 |④---|
13
口口口口 |----|
口口③口 |①---|
①④①④ |②-③-|
口口②口 |--④-|
14
口口口口 |--①-|
④③③④ |--②-|
②口①口 |③---|
口口口口 |④---|
15
⑤⑤⑤⑤ |----|
口④口口 |①-②-|
口②口① |③-④-|
口③口口 |--⑤-|
16
口口口口 |----|
口口口口 |----|
口口①口 |----|
口口口口 |①---|
17
口口②口 |①---|
④①③口 |②-③-|
口口口口 |----|
口口口口 |④---|
18
口⑤口口 |①---|
口口③口 |②---|
口①④口 |③---|
口口②口 |④-⑤-|
19
口口口口 |①---|
口①口② |----|
口口③口 |--②-|
口④口口 |③-④-|
20
口①口口 |----|
口口口口 |----|
口口口口 |----|
口口口口 |①---|
21
口口口口 |①---|
口②口口 |②-③-|
口③口① |----|
口口④口 |④---|
22
口口口口 |①---|
①口④③ |②---|
口②③④ |③---|
口口口口 |④---|
23
口口口口 |①---|
②①口口 |----|
①②口口 |②---|
口口④③ |③-④-|
24
口口口口 |----|
口口口口 |----|
口口口口 |----|
①②口口 |①-②-|
25
口口口④ |①---|
口口口口 |②-③-|
②①③口 |----|
口口口口 |④---|
26
口口①口 |①---|
口④②③ |②---|
口口口口 |③---|
口口口口 |④---|
27
口口口口 |①---|
口口口口 |----|
口②口② |②---|
①口①口 |----|
28
口口口口 |①---|
①②①口 |----|
口口口口 |----|
口口口口 |--②-|
29
①④④③ |①---|
口口②口 |②-③-|
①口口③ |----|
口口口口 |④---|
30
口口口口 |①---|
①⑤口① |②---|
口②②口 |③---|
口③④口 |④-⑤-|
31
①口口③ |①---|
口口②口 |--②-|
①口口③ |③---|
口口口口 |----|
32
口口口口 |----|
口口③③ |①---|
①①口口 |②---|
②②口口 |③---|
33
口口①① |①---|
口②口口 |②-③-|
口⑤③口 |④---|
口⑥④口 |⑤-⑥-|
34
口口①口 |--①-|
口口②口 |②---|
④口口④ |③---|
③口口③ |④---|
35
口口口口 |----|
口口①口 |①---|
口②③口 |②---|
口口④口 |③-④-|
36
口①口口 |--①-|
口②口口 |②---|
③口口③ |③---|
④口口④ |④---|
37
①①口③ |----|
①①②③ |①---|
口口口口 |②---|
口口口口 |--③-|
38
口口口口 |----|
口口口口 |①---|
口口口口 |②---|
①②③口 |③---|
39
口口口口 |①---|
口口口口 |----|
口口口口
口口口①
②口口口
口③口口
口口④口 |②-③-|
口口口⑤ |④-⑤-|
40
口口口口 |----|
口口口口 |----|
口口口口 |----|
口口口口 |----|
41
口口口口 |----|
口①口口 |①-②-|
口④②口 |③---|
口⑤③口 |④-⑤-|
42
口口①口 |--①-|
口口②口 |②---|
④口口④ |③---|
③口口③ |④---|
43
口口口口 |----|
口口①口 |①-②-|
口②④口 |③---|
口③⑤口 |④-⑤-|
44
口①口口 |--①-|
口②口口 |②---|
③口口③ |③---|
口口口口 |----|
45
口口口口 |①---|
口口口口 |----|
口口口口
口①①口
口口口口
口②口口
口③口口 |②--③|
口口④口 |--④-|
46
④口口④ |①---|
③口口③ |②---|
②口口② |③---|
①口口① |④---|
47
口口口口 |①---|
②口口② |--②-|
③口④③ |③---|
①口口① |--④-|
48
口口②口 |①-②-|
口①口口 |----|
口④④口 |③---|
口③③口 |④---|
49
口①①口 |①---|
口②②口 |②---|
口口口口
口口口口
口⑤⑤口
口口口口
口④④口 |③-④-|
口③③口 |--⑤-|
50
口④④口 |--①-|
口①①口 |--②-|
口③③口 |③---|
口②②口 |④---|
51
④口③口 |----|
①④口① |①---|
③口④口 |②---|
②口口② |③-④-|
52
口口⑤口 |----|
口④口口 |--①-|
口②③口 |②-③-|
口①口口 |④-⑤-|
53
口口口口 |①---|
①口④① |--②-|
口③口口 |③---|
口②口口 |--④-|
54
口口口口 |①---|
①口口① |②---|
③②口③ |③---|
口口④口 |④---|
55
口口②口 |①---|
口③口口 |----|
口④口口 |②-③-|
①⑤口① |④-⑤-|
56
口口口口 |----|
口③口口 |----|
②口口口 |--①-|
口①口口 |②-③-|
57
口④②口 |①---|
口口③口 |--②-|
口口①口 |③---|
口口口口 |--④-|
58
口口口口 |①---|
口①④口 |②---|
口口③③ |③---|
口口②② |④---|
59
口口口口 |①---|
口⑤④⑤ |----|
②口②口 |②-③-|
①①③口 |④-⑤-|
60
口口⑤口 |----|
口④口口 |--①-|
口②③口 |②-③-|
口①口口 |④-⑤-|
61
口口口口 |①---|
①口④① |--②-|
口③口口 |③---|
口②口口 |--④-|
62
口口口口 |①---|
①口口① |②---|
③②口③ |③---|
口口④口 |④---|
63
口口口② |①---|
口③③口 |----|
口④④口 |②-③-|
①⑤⑤① |④-⑤-|
64
口口口口 |----|
③口口口 |----|
①③口② |--①-|
口①口口 |②-③-|
65
口③③③ |①---|
口口②① |----|
口口口口 |②---|
口口口口 |--③-|
66
口口⑤口 |①--②|
口①④① |--③-|
口②②② |④---|
口③③③ |⑤---|
67
口口口口 |①---|
口①④① |②---|
②⑤②⑤ |③-④-|
口口③口 |--⑤-|
68
口口口口 |--①-|
④③③④ |--②-|
②口①口 |③---|
口口口口 |④---|
69
口口口口 |----|
口④口口 |①-②-|
⑤②⑤① |③-④-|
口③口口 |--⑤-|
70
③口口③ |--①-|
④②②④ |--②-|
口①口口 |③---|
口口口口 |④---|
71
口口口口 |----|
口口③口 |①---|
①④①④ |②-③-|
口口②口 |--④-|
72
口口口口 |--①-|
④③③④ |--②-|
②口①口 |③---|
口口口口 |④---|
73
口口口口 |----|
口④口口 |①-②-|
口②口① |③-④-|
⑤③口⑤ |--⑤-|
74
口口口口 |----|
①口③① |①---|
口②口口 |②---|
口口口口 |③---|
75
①口②① |①---|
口口口口 |--②-|
口口口口
口口口口
④③口④
口口口口
口口口口 |----|
口口口口 |③-④-|
不確定度: 0