We are チャリンコエンジェルス
浦安マリンエンジェルス

EXTREME

Level: 7
BPM: 145
Notes: 425

1
口口口口 |----|
口口口口 |----|
口口口口 |----|
口口口口 |----|
2
④口口⑤ |①-②-|
③④⑤口 |③---|
①⑤④② |④---|
⑤口口④ |⑤---|
3
④口口⑤ |①-②-|
③④⑤口 |③---|
①⑤④② |④---|
⑤口口④ |⑤---|
4
④口口⑤ |①-②-|
③④⑤口 |③---|
①⑤④② |④---|
⑤口口④ |⑤---|
5
⑤口口⑥ |①-②-|
③⑤⑥④ |③-④-|
①⑥⑤② |⑤---|
⑥口口⑤ |⑥---|
6
口口口口 |①-②-|
口③口口 |③---|
①口②口
口口口口

口④⑤口
④口口⑤
⑤口口④ |④---|
口⑤④口 |⑤---|
7
口④⑤口 |①-②-|
④③口⑤ |③---|
⑤①②④ |④---|
口⑤④口 |⑤---|
8
口④⑤口 |①-②-|
④③口⑤ |③---|
⑤①②④ |④---|
口⑤④口 |⑤---|
9
口⑤⑥口 |①-②-|
⑤③④⑥ |③-④-|
⑥①②⑤ |⑤---|
口⑥⑤口 |⑥---|
10
①口口① |①---|
口②②口 |--②-|
口①①口
②口口②

③口口③
口口口口
③口口③ |----|
口口口口 |③---|
11
口①①口 |--①-|
②②②② |----|
口①①口 |②---|
③③③③ |③---|
12
口①④口 |①-②-|
口③②口 |③-④-|
口⑤⑧口 |⑤-⑥-|
口⑦⑥口 |⑦-⑧-|
13
①口口② |①-②-|
③口口④ |③-④-|
⑤口口⑥ |⑤-⑥-|
⑦口口⑧ |⑦-⑧-|
14
①②口口 |①-②-|
⑤⑥③④ |③-④-|
口口⑦⑧ |⑤-⑥-|
口口口口 |⑦-⑧-|
15
①①②② |----|
口口口口 |----|
口口口口 |①---|
②②①① |②---|
16
口口口口 |①-②-|
口②口④ |③-④-|
①口③口
口口口口

口口口口
口口口口
⑤口口口 |----|
口⑥口口 |⑤-⑥-|
17
口口口口 |①-②-|
口口口③ |③-④-|
口④①⑤ |--⑤-|
⑥⑦口② |⑥-⑦-|
18
口口口口 |①---|
口口③③ |--②-|
②②口口 |----|
口口①① |③---|
19
①①口口 |--①-|
②口口② |----|
口口口口 |②---|
③口口③ |③---|
20
口①④口 |①-②-|
口③②口 |③-④-|
口⑤⑧口 |⑤-⑥-|
口⑦⑥口 |⑦-⑧-|
21
①口口② |①-②-|
③口口④ |③-④-|
⑤口口⑥ |⑤-⑥-|
⑦口口⑧ |⑦-⑧-|
22
①②口口 |①-②-|
口口③④ |③-④-|
口⑤⑥⑦ |--⑤-|
口口口口 |⑥-⑦-|
23
①②口口 |----|
口口口口 |----|
口口口口 |①-②-|
口口④③ |③-④-|
24
口口⑥① |①-②-|
口口②⑤ |③-④-|
口③口口 |----|
④口口口 |⑤-⑥-|
25
①口口口 |①-②-|
口②⑤口 |③-④-|
口⑥③口 |----|
口口口④ |⑤-⑥-|
26
②②口口 |----|
②②口① |----|
口口口① |①---|
口口①① |--②-|
27
口口口口 |----|
口口口口 |----|
口口口口 |----|
口口口口 |----|
28
①①口⑦ |①---|
口口⑥⑤ |②-③-|
②口④口 |④-⑤-|
口③口口 |⑥-⑦-|
29
②③①口 |①---|
口口④⑤ |----|
口口口口 |②-③-|
口口口口 |④-⑤-|
30
口口②口 |①---|
口口口口 |②---|
①口口①
①口口①

口④⑤口
③口口口
口口口口 |③-④-|
口口口口 |--⑤-|
31
口口口口 |①---|
口口口① |----|
口口口口 |----|
口口口口 |----|
32
①①口⑦ |①---|
口口⑥⑤ |②-③-|
②口④口 |④-⑤-|
口③口口 |⑥-⑦-|
33
②③①口 |①---|
口口④⑤ |----|
口口口口 |②-③-|
口口口口 |④-⑤-|
34
③口②口 |①---|
口④⑤口 |②---|
①口口① |③-④-|
①口口① |--⑤-|
35
口口口① |①---|
口口口口 |----|
口口口口 |----|
口口口口 |----|
36
④③口② |①---|
③④①口 |②---|
口①口① |③---|
口口①口 |④---|
37
④③口② |①---|
③④①口 |②---|
口①口① |③---|
口口①口 |④---|
38
口口口② |①---|
口口①口 |②---|
口①口①
口口①口

④③口口
③④口口
口口⑤⑤ |③---|
口口口口 |④-⑤-|
39
口口⑤② |①---|
③口口④ |②-③-|
①①口口 |④---|
③口口④ |⑤---|
40
口①口口 |①---|
①口①口 |②---|
口①④③ |③---|
②口③④ |④---|
41
口①口口 |①---|
①口①口 |②---|
口①④③ |③---|
②口③④ |④---|
42
口①口口 |①---|
①口①口 |②---|
口①③④ |③---|
②口④③ |④---|
43
④口口③ |①---|
口口①① |②-③-|
④口口③ |④---|
②口口口 |----|
44
口口口口 |①-②-|
③口口口 |③---|
口口口②
①口口口

④口口⑤
口④⑤口
口⑤④口 |④---|
⑤口口④ |⑤---|
45
④口口⑤ |①-②-|
③④⑤口 |③---|
①⑤④② |④---|
⑤口口④ |⑤---|
46
④口口⑤ |①-②-|
③④⑤口 |③---|
①⑤④② |④---|
⑤口口④ |⑤---|
47
⑤口口⑥ |①-②-|
③⑤⑥④ |③-④-|
①⑥⑤② |⑤---|
⑥口口⑤ |⑥---|
48
口口口口 |①-②-|
口③口口 |③---|
①口②口
口口口口

口④⑤口
④口口⑤
⑤口口④ |④---|
口⑤④口 |⑤---|
49
口④⑤口 |①-②-|
④③口⑤ |③---|
⑤①②④ |④---|
口⑤④口 |⑤---|
50
口④⑤口 |①-②-|
④③口⑤ |③---|
⑤①②④ |④---|
口⑤④口 |⑤---|
51
口⑤⑥口 |①-②-|
⑤③④⑥ |③-④-|
⑥①②⑤ |⑤---|
口⑥⑤口 |⑥---|
52
口口口口 |①---|
口口口口 |----|
口①①口 |----|
口口口口 |----|

不確定度: 0

最終更新:2014年12月11日 23:51