都会征服Girls☆
日向美ビタースイーツ♪

BASIC

Level: 3
BPM: 140
Notes: 278

1
口口口口 |----|
口口口口 |----|
口口口口 |----|
口口口口 |----|
2
口口口口 |①---|
①②④③ |②---|
口口口口 |③---|
口口口口 |④---|
3
口④④口 |①---|
口③口口 |②---|
口口②口 |③---|
口①口口 |④---|
4
③③口口 |①---|
口②口口 |②---|
口①口口 |③---|
口口口口 |----|
5
口口①① |①---|
口口口口 |----|
口②②口 |②---|
口口口口 |----|
6
口口口口 |①---|
口口①口 |②---|
口口②口 |③---|
口口③③ |----|
7
口口口口 |①---|
③口口③ |----|
②口口② |②---|
①①口口 |③---|
8
③③口口 |①---|
口②口口 |②---|
口①口口 |③---|
口口口口 |----|
9
口口①① |①---|
口口口口 |----|
口②②口 |②---|
口口口口 |----|
10
口口口口 |①---|
①口口① |----|
②口口② |②---|
口口口口 |----|
11
口口口口 |①---|
口③③口 |②---|
口②②口 |③---|
口①①口 |----|
12
口①口口 |①---|
口②③口 |----|
口口口口 |②---|
口口口口 |③---|
13
口口口口 |①---|
口口口口 |----|
口①口口 |②---|
口②③口 |③---|
14
④②②④ |①---|
口口口口 |②---|
③①①③ |③---|
口口口口 |④---|
15
口②①口 |①---|
④④④④ |②---|
③口口③ |③---|
口口口口 |④---|
16
口①口口 |①---|
口②③口 |----|
口口口口 |②---|
口口口口 |③---|
17
口口口口 |①---|
口口口口 |----|
口①口口 |②---|
口②③口 |③---|
18
④②②④ |①---|
口口口口 |②---|
③①①③ |③---|
口口口口 |④---|
19
口②①口 |①---|
④④④④ |②---|
③口口③ |③---|
口口口口 |④---|
20
口口口口 |①---|
口口口口 |----|
口口口口 |②---|
口②①口 |----|
21
口口口口 |①---|
口②③口 |----|
口口①口 |②---|
口口口口 |③---|
22
口①②口 |①---|
口口口口 |----|
口口口口 |②---|
口口口口 |----|
23
口口口口 |①---|
口①①口 |----|
口②②口 |②---|
口口口口 |----|
24
口口口口 |①---|
口口口口 |----|
口口口口 |②---|
口②①口 |----|
25
口口口口 |①---|
口②③口 |----|
口口①口 |②---|
口口口口 |③---|
26
①口口① |①---|
口口口口 |----|
口口口口 |----|
口口口口 |----|
27
口口口口 |①---|
①口口① |----|
口口口口 |----|
口口口口 |----|
28
口口口口 |①---|
口口口口 |----|
①②口口 |②---|
口口口口 |----|
29
口口口口 |①---|
口口口口 |----|
口口①② |②---|
口口口口 |----|
30
口口口口 |①---|
①②口口 |----|
口口口口 |②---|
口口口口 |----|
31
口口口口 |①---|
口口①② |----|
口口口口 |②---|
口口口口 |----|
32
口①①口 |①---|
口②②口 |----|
口口口口 |②---|
口口口口 |----|
33
口口口口 |①---|
口口口口 |----|
口①①口 |②---|
口②②口 |----|
34
①口口① |①---|
②口口② |----|
口口口口 |②---|
口口口口 |----|
35
口口口口 |①---|
口口口口 |----|
①口口① |②---|
②口口② |----|
36
口口口口 |①---|
②②①① |----|
口口口口 |②---|
口口口口 |----|
37
口口口口 |①---|
口③③口 |②---|
口②②口 |③---|
口①①口 |----|
38
口口口口 |①---|
①③③① |②---|
口口口口 |③---|
②④④② |④---|
39
①口口① |①---|
①口口① |----|
口③②口 |②---|
口口口口 |③---|
40
口口口口 |①---|
①③③① |②---|
口口口口 |③---|
②④④② |④---|
41
①口口① |①---|
①口口① |----|
口口口口 |----|
口口口口 |----|
42
口口口口 |①---|
口①②口 |----|
口①②口 |②---|
口口口口 |----|
43
口口口口 |①---|
①口口② |----|
①口口② |②---|
口口口口 |----|
44
口口口口 |①---|
口口口口 |②---|
口口口口 |③---|
①②③④ |④---|
45
口口口口 |①---|
口口口口 |②---|
④③②① |③---|
口口口口 |④---|
46
口口口口 |①---|
①③③① |②---|
口口口口 |③---|
②④④② |④---|
47
①口口① |①---|
①口口① |----|
口③②口 |②---|
口口口口 |③---|
48
口口口口 |①---|
①③③① |②---|
口口口口 |③---|
②④④② |④---|
49
①口口① |①---|
①口口① |----|
口口口口 |----|
口口口口 |----|
50
口口口口 |①---|
口①②口 |----|
口①②口 |②---|
口口口口 |----|
51
口口口口 |①---|
①口口② |----|
①口口② |②---|
口口口口 |----|
52
口①口口 |①---|
口口②口 |②---|
口③口口 |③---|
口口④口 |④---|
53
③口口③ |①---|
②口口② |②---|
①口口① |③---|
口口口口 |----|
54
口口口口 |①---|
①②④③ |②---|
口口口口 |③---|
口口口口 |④---|
55
口④④口 |①---|
口③口口 |②---|
口口②口 |③---|
口①口口 |④---|
56
③③口口 |①---|
口②口口 |②---|
口①口口 |③---|
口口口口 |----|
57
口口①① |①---|
口口口口 |----|
口②②口 |②---|
口口口口 |----|
58
口口口口 |①---|
口口①口 |②---|
口口②口 |③---|
口口③③ |----|
59
口口口口 |①---|
③口口③ |----|
②口口② |②---|
①①口口 |③---|
60
③③口口 |①---|
口②口口 |②---|
口①口口 |③---|
口口口口 |----|
61
口口①① |①---|
口口口口 |----|
口②②口 |②---|
口口口口 |----|
62
口口口口 |①---|
①口口① |----|
②口口② |②---|
口口口口 |----|
63
口口口口 |①---|
口③③口 |②---|
口②②口 |③---|
口①①口 |----|
64
口口口口 |----|
口①①口 |----|
口①①口 |----|
口口口口 |①---|

不確定度: 0

最終更新:2014年12月11日 23:33