滅びに至るエランプシス
日向美ビタースイーツ♪

BASIC

Level: 3
BPM: 158
Notes: 261

1
口口口口 |----|
口口口口 |----|
口口口口 |----|
口口口口 |----|
2
口口口口 |----|
口口口口 |----|
口口口口 |----|
口口口口 |----|
3
口口口口 |①---|
口①①口 |----|
口①①口 |----|
口口口口 |----|
4
口口口口 |----|
口口口口 |----|
口口口口 |----|
口口口口 |----|
5
口口口口 |①---|
口①①口 |----|
口①①口 |----|
口口口口 |----|
6
口口口口 |----|
口口口口 |----|
口口口口 |----|
口口口口 |----|
7
口口口口 |①---|
口口口口 |----|
口①②口 |②---|
口口口口 |----|
8
①口口口 |①---|
②口口口 |②---|
③口口口 |③---|
口口口口 |----|
9
口口口口 |①---|
口口口口 |----|
口①②口 |②---|
口口口口 |----|
10
口口口① |①---|
口口口② |②---|
口口口③ |③---|
口口口口 |----|
11
口口口口 |①---|
口口口口 |----|
口①②口 |②---|
口口口口 |----|
12
口口口口 |①---|
①③④② |②---|
口口口口 |③---|
口口口口 |④---|
13
口口口口 |①---|
口口口口 |----|
①口口① |----|
口口口口 |----|
14
口口口口 |①---|
①口口① |----|
口口口口 |----|
口口口口 |----|
15
口口口口 |①---|
口①①口 |----|
口①①口 |----|
口口口口 |----|
16
口①口口 |①---|
口口②口 |----|
口口口口 |②---|
口口口口 |----|
17
口口口口 |①---|
口口口口 |②---|
①②③口 |③---|
口口口口 |----|
18
口①口口 |①---|
口口②口 |----|
口口口口 |②---|
口口口口 |----|
19
口口口口 |①---|
口口口口 |②---|
①②③口 |③---|
口口口口 |----|
20
口口口口 |①---|
口口①口 |----|
口②口口 |②---|
口口口口 |----|
21
口口口口 |①---|
口口口口 |②---|
口口口口 |③---|
口③②① |----|
22
口口口口 |①---|
口口①口 |----|
口②口口 |②---|
口口口口 |----|
23
口口口口 |①---|
口口口口 |②---|
口口口口 |③---|
口③②① |----|
24
口①口口 |①---|
口②口口 |----|
口口口口 |②---|
口口口口 |----|
25
口口口口 |①---|
①口口口 |----|
②口口口 |②---|
口口口口 |----|
26
口口口口 |①---|
口口口口 |②---|
口①②③ |③---|
口口口口 |----|
27
口口口口 |①---|
口口口口 |②---|
口口口口 |③---|
口①②③ |----|
28
口①口口 |①---|
口②口口 |----|
口口口口 |②---|
口口口口 |----|
29
口口口口 |①---|
①口口口 |----|
②口口口 |②---|
口口口口 |----|
30
口口口口 |①---|
口口口口 |②---|
口①②③ |③---|
口口口口 |----|
31
口口口口 |①---|
口口口口 |②---|
口口口口 |③---|
口①②③ |----|
32
口口口口 |①---|
口口口口 |----|
口口口口 |②---|
①①②② |----|
33
口口口口 |①---|
口口口口 |----|
口①①口 |----|
口口口口 |----|
34
口口口口 |①---|
①①②② |----|
口口口口 |②---|
口口口口 |----|
35
口①①口 |①---|
口口口口 |----|
口口口口 |----|
口口口口 |----|
36
①①②② |①---|
口口口口 |----|
口口口口 |②---|
口口口口 |----|
37
口口口口 |①---|
口①①口 |----|
口口口口 |----|
口口口口 |----|
38
④口口④ |①---|
③口口③ |②---|
②口口② |③---|
①口口① |④---|
39
口①①口 |①---|
口②②口 |②---|
口③③口 |③---|
口④④口 |④---|
40
口口口口 |----|
③口口③ |①---|
②口口② |②---|
①口口① |③---|
41
口①①口 |①---|
口口口口 |----|
口口口口 |----|
口口口口 |----|
42
口①①口 |①---|
口①①口 |----|
②③口口 |②---|
口口口口 |③---|
43
口口口口 |①---|
口口口口 |②---|
口口①② |③---|
口③③口 |----|
44
口①①口 |①---|
口①①口 |----|
②③口口 |②---|
口口口口 |③---|
45
口口口口 |①---|
口口口口 |②---|
口口①② |③---|
口③③口 |----|
46
口口②② |①---|
①①口口 |----|
口口口口 |②---|
口口口口 |----|
47
①①口口 |①---|
③③②② |----|
口口口口 |②---|
口口口口 |③---|
48
口口口口 |①---|
口②②口 |----|
口①①口 |----|
口口口口 |②---|
49
口口口口 |①---|
口口口口 |----|
口口口口 |----|
口①①口 |----|
50
口口口口 |----|
口①②口 |----|
口③口口 |--①-|
口口口口 |②-③-|
51
②口口② |①---|
③口口③ |----|
口口①口 |②---|
口口口口 |③---|
52
口口口口 |①---|
口②口口 |----|
①口口① |----|
口口口口 |②---|
53
②口口② |①---|
③口口③ |----|
口口口口 |②---|
口口①口 |③---|
54
口口口口 |①---|
口②口口 |----|
①口③① |----|
口口口口 |②-③-|
55
③口口③ |①---|
④口口④ |②---|
口口口口 |③---|
口①②口 |④---|
56
口口口口 |①---|
口口口口 |----|
①②口① |----|
口口口口 |②---|
57
③口口③ |①---|
④口口④ |--②-|
口口口口 |③---|
口②①口 |④---|
58
口②③口 |①---|
口④口口 |----|
①口口① |--②-|
口口口口 |③-④-|
59
口口口口 |①---|
④口①⑤ |②-③-|
⑥口口⑦ |④-⑤-|
口②③口 |⑥-⑦-|
60
口口口口 |①---|
②①①口 |----|
口口口口 |----|
口口口口 |②---|
61
口口口口 |①---|
口口口口 |--②-|
②⑥⑤① |③-④-|
口④③口 |⑤-⑥-|
62
口口口口 |①---|
口①①口 |----|
口口口口
口口口口

口口口口
口口②口
口③口口 |----|
口口口口 |②-③-|
63
口口口口 |①---|
②口口③ |--②-|
④⑥口⑤ |③-④-|
口口①口 |⑤-⑥-|
64
口口口口 |①---|
②①①口 |----|
口口口口 |----|
口口口口 |②---|
65
口口口口 |①---|
口④③① |--②-|
②⑥⑤口 |③-④-|
口口口口 |⑤-⑥-|
66
口③④口 |①---|
①口②① |②---|
口口口口 |③---|
口口口口 |④---|
67
口口口口 |①---|
口口口口 |②---|
口①②③ |③---|
口④④口 |④---|
68
①口④① |①---|
口③②口 |②---|
口口口口 |③---|
口口口口 |④---|
69
口口口口 |①---|
口口口口 |②---|
①②③④ |③---|
口口口口 |④---|
70
口①④口 |①---|
口③②口 |②---|
口口口口 |③---|
口口口口 |④---|
71
口口口口 |①---|
口口口口 |②---|
①②③④ |③---|
口口口口 |④---|
72
口①④口 |①---|
口③②口 |②---|
口口口口 |③---|
口口口口 |④---|
73
口口口口 |①---|
口④④口 |②---|
①口③口 |③---|
口②口口 |④---|

不確定度: 0

最終更新:2014年12月11日 23:07