もったいないとらんど
きゃりーぱみゅぱみゅ
ADVANCED
Level: 6
BPM: 160
Notes: 402
1
口口口口 |----|
口口口口 |----|
口口口口 |----|
口口口口 |----|
2
口口口口 |①---|
口口口口 |----|
口②口口 |②---|
口口①口 |----|
3
口②口口 |①---|
口口①口 |----|
口口口口 |②---|
口口口口 |----|
4
口③口口 |①---|
③口③② |②---|
口④⑤① |③---|
口口口口 |④-⑤-|
5
口口③口 |①---|
②③口③ |②---|
①④⑤口 |③---|
口口口口 |④-⑤-|
6
口⑤⑥口 |①-②-|
口⑦口④ |③-④-|
③口⑧口 |⑤-⑥-|
①口口② |⑦-⑧-|
7
口口口口 |①-②-|
口口口口 |③---|
③口口②
口①口口
口口口口
口口口口
口口口口 |----|
口④⑤口 |④-⑤-|
8
口口③口 |①---|
②③口③ |②---|
①口口口 |③---|
口④⑤口 |④-⑤-|
9
口⑤口口 |①-②-|
⑤口⑤口 |③-④-|
④③②① |⑤---|
⑦口口⑥ |⑥-⑦-|
10
⑧口口⑦ |①-②-|
口⑥⑤口 |③-④-|
④口口③ |⑤-⑥-|
口②①口 |⑦-⑧-|
11
口①①口 |①-②-|
③口口③ |③---|
口②②口 |----|
口口口口 |----|
12
口口口⑦ |--①-|
口⑥口⑤ |②-③-|
口④口③ |④-⑤-|
口②口① |⑥-⑦-|
13
③①②口 |①-②-|
口④⑤口 |③---|
口口口口 |----|
口口口口 |④-⑤-|
14
⑦口口口 |--①-|
⑤口⑥口 |②-③-|
③口④口 |④-⑤-|
①口②口 |⑥-⑦-|
15
口⑥⑥① |①-②-|
口②口口 |③-④-|
口⑤⑤③ |⑤---|
口④口口 |⑥---|
16
③口口③ |①---|
②③③② |②---|
①口口① |③---|
口口口口 |----|
17
口③③口 |①---|
③口口③ |②---|
口②②口 |③---|
口①①口 |----|
18
口口⑦口 |--①-|
口⑥①口 |②-③-|
口②⑤口 |④-⑤-|
口④③口 |⑥-⑦-|
19
①③口② |--①-|
口④口口 |②-③-|
口⑥⑤口 |--④-|
口口口口 |⑤-⑥-|
20
口口口口 |----|
口口口口 |----|
口口口口 |----|
口口口口 |----|
21
口口口口 |----|
口口口口 |----|
口口口口 |----|
口口口口 |----|
22
口④⑤口 |①---|
口口口口 |②-③-|
口③②口 |④---|
口①口口 |⑤---|
23
口口口口 |①-②-|
①②③④ |③-④-|
口口口⑤ |⑤---|
口口口口 |----|
24
口⑦⑥口 |①-②-|
口⑤口口 |③-④-|
口③④口 |⑤---|
口①②口 |⑥-⑦-|
25
口口口口 |①-②-|
④③②① |③-④-|
⑤口口口 |⑤---|
口口口口 |----|
26
口④⑤③ |①---|
口口②口 |②-③-|
口①口口 |④---|
口口口口 |⑤---|
27
口口口口 |①-②-|
①②③④ |③-④-|
口口口⑤ |⑤---|
口口口口 |----|
28
口⑤④口 |①---|
口③口口 |②-③-|
口口②口 |④---|
口①口口 |⑤---|
29
口口口口 |①-②-|
④③②① |③-④-|
⑤口口口 |⑤---|
口口口口 |----|
30
口口口口 |①---|
口口口口 |②-③-|
⑤口口口 |④---|
②③④① |⑤---|
31
口④③口 |①-②-|
口②⑤口 |③-④-|
口口①口 |⑤---|
口口口口 |----|
32
口口口口 |①-②-|
口口口口 |③---|
①②③口 |④-⑤-|
⑦⑥⑤④ |⑥-⑦-|
33
口③④口 |①-②-|
口⑤②口 |③-④-|
口①口口 |⑤---|
口口口口 |----|
34
口口口口 |①---|
口口口口 |②-③-|
⑤⑥口④ |④---|
口②③① |⑤-⑥-|
35
口④③口 |①-②-|
口②⑤口 |③-④-|
口口①口 |⑤---|
口口口口 |----|
36
口口口口 |①---|
口口口口 |②-③-|
①口③② |④---|
④口口⑤ |⑤---|
37
口③④口 |①-②-|
口⑤②口 |③-④-|
口①口口 |⑤---|
口口口口 |----|
38
口⑤④口 |----|
口③口口 |①---|
口口②口 |②-③-|
口口①口 |④-⑤-|
39
口口口口 |①---|
①口②口 |②-③-|
口③口口 |④---|
口⑤④口 |⑤---|
40
④口③口 |①---|
口②口口 |②---|
口口①口 |③---|
口口口口 |④---|
41
口口口① |①---|
口口口口 |----|
口口口口
口口口口
口口③②
口口口口
口口口口 |----|
口口口口 |②-③-|
42
口①口口 |①---|
②③④口 |②-③-|
口口⑥⑤ |④---|
口口口口 |⑤-⑥-|
43
口口口口 |①---|
口口⑥口 |②-③-|
口①口⑤ |④---|
②③④口 |⑤-⑥-|
44
口口①口 |①---|
口口口口 |----|
口②②口 |②---|
口口口口 |----|
45
⑦口口口 |①---|
⑥⑤④口 |②-③-|
口口③口 |④-⑤-|
①口②① |⑥-⑦-|
46
口口①口 |--①-|
口⑥②⑤ |②-③-|
口③口④ |--④-|
口口口口 |⑤-⑥-|
47
口口口口 |----|
口口口口 |----|
口口口口 |----|
口口口口 |----|
48
口口口口 |----|
口③②口 |①---|
口⑤④口 |②-③-|
口①①口 |④-⑤-|
49
口③口口 |①---|
③口③② |②---|
口④⑤① |③---|
口口口口 |④-⑤-|
50
口口③口 |①---|
②③口③ |②---|
①④⑤口 |③---|
口口口口 |④-⑤-|
51
口⑤⑥口 |①-②-|
口⑦口④ |③-④-|
③口⑧口 |⑤-⑥-|
①口口② |⑦-⑧-|
52
口口口口 |①-②-|
口口口口 |③---|
③口口②
口①口口
口口口口
口口口口
口口口口 |----|
口④⑤口 |④-⑤-|
53
口口③口 |①---|
②③口③ |②---|
①口口口 |③---|
口④⑤口 |④-⑤-|
54
口⑤口口 |①-②-|
⑤口⑤口 |③-④-|
④③②① |⑤---|
⑦口口⑥ |⑥-⑦-|
55
⑧口口⑦ |①-②-|
口⑥⑤口 |③-④-|
④口口③ |⑤-⑥-|
口②①口 |⑦-⑧-|
56
口①①口 |①-②-|
③口口③ |③---|
口②②口 |----|
口口口口 |----|
57
口口口⑦ |--①-|
口⑥口⑤ |②-③-|
口④口③ |④-⑤-|
口②口① |⑥-⑦-|
58
③①②口 |①-②-|
口④⑤口 |③---|
口口口口 |----|
口口口口 |④-⑤-|
59
⑦口口口 |--①-|
⑤口⑥口 |②-③-|
③口④口 |④-⑤-|
①口②口 |⑥-⑦-|
60
口⑥⑥① |①-②-|
口②口口 |③-④-|
口⑤⑤③ |⑤---|
口④口口 |⑥---|
61
③口口③ |①---|
②③③② |②---|
①口口① |③---|
口口口口 |----|
62
口③③口 |①---|
③口口③ |②---|
口②②口 |③---|
口①①口 |----|
63
口口⑦口 |--①-|
口⑥①口 |②-③-|
口②⑤口 |④-⑤-|
口④③口 |⑥-⑦-|
64
①③口② |--①-|
口④口口 |②-③-|
口⑥⑤口 |--④-|
口口口口 |⑤-⑥-|
65
口口口口 |①---|
口口口口 |②---|
口④③口 |③---|
口②①口 |④---|
66
口④③口 |①---|
口②①口 |②---|
口口口口 |③---|
口口口口 |④---|
67
②口口① |①---|
④口口③ |②---|
口口口口 |③---|
口口口口 |④---|
68
口口口口 |①---|
口口口口 |②---|
②口口① |③---|
④口口③ |④---|
69
口口④口 |①---|
口口③口 |②---|
口口②口 |③---|
口口①口 |④---|
70
口④口口 |①---|
口③口口 |②---|
口②口口 |③---|
口①口口 |④---|
71
口口口口 |①---|
⑤口口口 |②---|
口④③口 |③---|
口②①口 |④-⑤-|
72
口口⑥② |--①-|
口③⑤① |②-③-|
口口④口 |--④-|
口口口口 |⑤-⑥-|
不確定度: 0