ルシャナの気持ち
Le Siana

BASIC

Level: 3
BPM: 172
Notes: 185

1
口口口口 |----|
口口口口 |----|
口口口口 |----|
口口口口 |----|
2
口口口口 |①---|
口①①口 |----|
口口口口 |----|
口口口口 |----|
3
口口口口 |----|
口口口口 |①---|
口③②① |②---|
口口口口 |③---|
4
口口口口 |①---|
口②②口 |----|
①口口口 |②---|
口口口口 |----|
5
②口口① |①---|
②口口① |----|
口口口口 |②---|
口口口口 |----|
6
口口口口 |①---|
口②②口 |----|
口①①口 |②---|
口口口口 |----|
7
口口口口 |①---|
②口口① |----|
②口口① |②---|
口口口口 |----|
8
口口口口 |①---|
口①①口 |----|
口口口口 |----|
口口口口 |----|
9
口口口口 |①---|
口口口口 |----|
口①①口 |----|
口口口口 |----|
10
口口口口 |①---|
口口口口 |----|
②口口② |②---|
口①①口 |----|
11
口口口口 |----|
口口口口 |----|
口口口口 |----|
口口口口 |----|
12
口口口口 |①---|
口①①口 |----|
口口口② |②---|
口口口口 |----|
13
口口口口 |①---|
口口口口 |----|
口②①口 |②---|
口口口口 |----|
14
口口口口 |①---|
②口口口 |----|
①口口口 |②---|
口口口口 |----|
15
口口口口 |①---|
口①口口 |----|
口口口口 |----|
口口口口 |----|
16
口口口口 |①---|
口口②口 |----|
口口①口 |②---|
口口口口 |----|
17
口②①口 |①---|
口口口口 |----|
口口口口 |②---|
口口口口 |----|
18
①口口口 |①---|
②口口口 |----|
口口口口 |②---|
口口口口 |----|
19
口口口口 |①---|
口口口口 |----|
①口口口 |②---|
②口口口 |----|
20
口口口口 |①---|
口口口口 |----|
口②口口 |②---|
口口①口 |----|
21
口②口口 |①---|
口口①口 |----|
口口口口 |②---|
口口口口 |----|
22
口口②② |①---|
口口口口 |----|
口①口口 |②---|
口口口口 |----|
23
②②口口 |①---|
口口口口 |----|
口口①口 |②---|
口口口口 |----|
24
口口口口 |①---|
口②口口 |----|
口①口口 |②---|
口口口口 |----|
25
口①②口 |①---|
口口口口 |----|
口口口口 |②---|
口口口口 |----|
26
口口口① |①---|
口口口② |----|
口口口口 |②---|
口口口口 |----|
27
口口口口 |①---|
口口口口 |----|
口口口① |②---|
口口口② |----|
28
口口口口 |①---|
口口口口 |----|
口口②口 |②---|
口①口口 |----|
29
口口②口 |①---|
口①口口 |----|
口口口口 |②---|
口口口口 |----|
30
②②口口 |①---|
口口口口 |----|
口口①口 |②---|
口口口口 |----|
31
口口口口 |①---|
口②①口 |----|
口口口口 |②---|
口口口口 |----|
32
口口口口 |①---|
口口口口 |----|
①口口① |----|
口口口口 |----|
33
口口口口 |①---|
口口口口 |----|
口口①口 |----|
口口口口 |----|
34
口口口口 |①---|
口口①口 |----|
口口口口 |----|
口口口口 |----|
35
口口①口 |①---|
口口口口 |----|
口口口口 |----|
口口口口 |----|
36
口口口口 |①---|
口口口口 |----|
①口口① |----|
口口口口 |----|
37
口口口口 |①---|
口口口口 |----|
口①口口 |----|
口口口口 |----|
38
口口口口 |①---|
口①口口 |----|
口口口口 |----|
口口口口 |----|
39
口①口口 |①---|
口口口口 |----|
口口口口 |----|
口口口口 |----|
40
口口口口 |①---|
口口口口 |----|
①口口① |----|
口口口口 |----|
41
口口口口 |①---|
口口口口 |----|
口①①口 |----|
口口口口 |----|
42
口口口口 |①---|
口①①口 |----|
口口口口 |----|
口口口口 |----|
43
口①①口 |①---|
口口口口 |----|
口口口口 |----|
口口口口 |----|
44
口口口口 |①---|
口口口口 |----|
①口口① |----|
口口口口 |----|
45
口口口口 |①---|
口口口口 |----|
口①①口 |----|
口口口口 |----|
46
口口口口 |①---|
口口②① |----|
口口口口 |②---|
口口口口 |----|
47
口口口口 |①---|
②①口口 |----|
口口口口 |②---|
口口口口 |----|
48
口口口口 |①---|
口口口口 |----|
①②口口 |②---|
口口口口 |----|
49
口②②口 |①---|
口①①口 |----|
口口口口 |②---|
口口口口 |----|
50
口口③口 |①---|
口口②口 |----|
口①①口 |②---|
口口口口 |③---|
51
口口口① |①---|
口口②口 |----|
口口口口 |②---|
口口口口 |----|
52
口③口口 |①---|
口②口口 |----|
口①①口 |②---|
口口口口 |③---|
53
①口口口 |①---|
口②口口 |----|
口口口口 |②---|
口口口口 |----|
54
口口口口 |①---|
口口口口 |----|
口口②② |②---|
口①①口 |----|
55
口口口口 |①---|
口口口口 |----|
②②口口 |②---|
口①①口 |----|
56
口口②② |①---|
口①①口 |----|
口口口口 |②---|
口口口口 |----|
57
②②口口 |①---|
口①①口 |----|
口口口口 |②---|
口口口口 |----|
58
口口③口 |①---|
口口②口 |----|
口①①口 |②---|
口口口口 |③---|
59
口口口① |①---|
口口②口 |----|
口口口口 |②---|
口口口口 |----|
60
口③口口 |①---|
口②口口 |----|
口①①口 |②---|
口口口口 |③---|
61
①口口口 |①---|
口②口口 |----|
口口口口 |②---|
口口口口 |----|
62
口口口口 |①---|
口口口口 |----|
口口②② |②---|
口①①口 |----|
63
口口口口 |①---|
口口口口 |----|
②②口口 |②---|
口①①口 |----|
64
口口②② |①---|
口①①口 |----|
口口口口 |②---|
口口口口 |----|
65
②②口口 |①---|
口①①口 |----|
口口口口 |②---|
口口口口 |----|
66
口口口口 |①---|
口②②口 |----|
口①①口 |②---|
口口口口 |----|
67
②口口① |①---|
②口口① |----|
口口口口 |②---|
口口口口 |----|
68
口口口口 |①---|
口②②口 |----|
口①①口 |②---|
口口口口 |----|
69
口口口口 |①---|
②口口① |----|
②口口① |②---|
口口口口 |----|
70
口口口口 |①---|
口①①口 |----|
口口口口 |----|
口口口口 |----|
71
口口口口 |①---|
口口口口 |----|
口①①口 |----|
口口口口 |----|
72
口口口口 |①---|
口口口口 |----|
②口口② |②---|
口①①口 |----|
73
口口口口 |----|
口口口口 |----|
口口口口 |----|
口口口口 |----|
74
口口口口 |①---|
口①①口 |----|
口口口口 |----|
口口口口 |----|

不確定度: 0

最終更新:2014年12月11日 22:43