Everybody Say EDOGAWA
EDOist

ADVANCED

Level: 6
BPM: 142
Notes: 381

1
口口口口 |----|
口口口口 |----|
口口口口 |----|
口口口口 |----|
2
口口口口 |①-②-|
口①①口 |--③-|
③⑤④口 |④--⑤|
口②②⑥ |--⑥-|
3
口口口口 |①---|
①口口① |②---|
②口口② |③---|
③口口③ |----|
4
①①⑤⑤ |①---|
③③⑤⑤ |②---|
②②口口 |③-④-|
④④口口 |--⑤-|
5
口口口口 |----|
口口口口 |①---|
口口口口 |--②-|
①③②口 |③---|
6
口口口口 |----|
口口口口 |①---|
①口②口 |----|
口口口口 |②---|
7
口口口口 |----|
①③②口 |①---|
口口口口 |--②-|
口口口口 |③---|
8
①①⑤⑤ |①---|
③③⑤⑤ |②---|
②②口口 |③-④-|
④④口口 |--⑤-|
9
口①②口 |----|
口③口口 |----|
口口口口 |--①-|
口口口口 |②-③-|
10
口口口口 |①---|
口口①口 |--②-|
口②④口 |③---|
③口口口 |--④-|
11
口口口口 |①---|
口②口口 |--②-|
口口口口
口口口①

口口口口
⑥口口③
口口口口 |③-④-|
④口口⑤ |⑤-⑥-|
12
②口口② |①-②-|
口口口口 |--③-|
口①①口
③口口③

⑥口口⑥
④口口④
⑤口口⑤ |④---|
口口口口 |⑤-⑥-|
13
口口口口 |----|
口口口口 |----|
口口口口 |----|
口口口口 |----|
14
口②②口 |①-②-|
口口口口 |--③-|
口①①口
口③③口

口⑥⑥口
口④④口
口⑤⑤口 |④---|
口口口口 |⑤-⑥-|
15
口口口口 |----|
口口口口 |----|
口口口口 |----|
口口口口 |----|
16
口④④口 |①-②-|
⑥②②⑥ |--③-|
③口口③ |④---|
①⑤⑤① |⑤-⑥-|
17
口口口口 |----|
①②口口 |----|
口口③口 |--①-|
口口口口 |②-③-|
18
口口口口 |①---|
口口口口 |----|
口口口① |----|
口口口口 |----|
19
口口口口 |----|
口口口口 |----|
口口口口 |----|
口口口口 |----|
20
①口口口 |①-②-|
⑤②口⑤ |③-④-|
⑦口③口 |⑤---|
口⑥⑥④ |⑥-⑦-|
21
口①口口 |--①-|
口口③③ |②-③-|
口口②口 |----|
口口口口 |----|
22
口⑥口④ |①-②-|
口口③口 |③-④-|
⑦②⑤口 |⑤-⑥-|
①口口口 |--⑦-|
23
口口口口 |--①-|
③③口口 |②-③-|
口②口① |----|
口口口口 |----|
24
口①口口 |①-②-|
⑤⑥②口 |③-④-|
口③⑦⑧ |⑤-⑥-|
口口④口 |⑦-⑧-|
25
口①口口 |①-②-|
⑤⑥②口 |③-④-|
口③⑦⑧ |⑤-⑥-|
口口④口 |⑦-⑧-|
26
口①口口 |①-②-|
⑤⑥②⑧ |③-④-|
口③⑦口 |⑤-⑥-|
口口④口 |⑦-⑧-|
27
口口口⑧ |①-②-|
口⑥⑦口 |③-④-|
⑤③④① |⑤-⑥-|
②口口口 |⑦-⑧-|
28
口③⑥口 |①---|
②口④口 |②-③-|
口⑤口口 |--④-|
①口①口 |⑤-⑥-|
29
口口口③ |--①-|
口口口② |②-③-|
口口口① |----|
口口口口 |----|
30
口⑥③口 |①---|
口④口② |②-③-|
口口⑤口 |--④-|
口①口① |⑤-⑥-|
31
③口口口 |--①-|
②口口口 |②-③-|
①口口口 |----|
口口口口 |----|
32
口口口口 |①-②-|
②②口口 |--③-|
口③⑤④ |--④-|
①口①口 |⑤---|
33
口口口口 |①-②-|
口口②② |--③-|
③口口口
口①口①

口口口口
口口⑥口
口⑤口口 |--④-|
口口④口 |⑤-⑥-|
34
①⑤⑤① |①-②-|
④口口④ |--③-|
⑥⑥⑥⑥ |④---|
②③③② |⑤-⑥-|
35
口口口口 |----|
口口口口 |----|
①口口口 |①---|
口口口② |②---|
36
①①⑤⑤ |①---|
③③⑤⑤ |②---|
②②口口 |③-④-|
④④口口 |--⑤-|
37
口口口口 |--①②|
①口口口 |③-④-|
口②③口 |--⑤-|
⑤⑥口④ |⑥---|
38
①口①口 |①---|
口②口② |②---|
口口口口
口口口口

口口口口
口口⑤⑤
③口③口 |③-④-|
口④④口 |--⑤-|
39
②②④④ |--①-|
口口口口 |②-③-|
①①③③ |④-⑤-|
⑤⑥口口 |⑥---|
40
①①⑤⑤ |①---|
③③⑤⑤ |②---|
②②口口 |③-④-|
④④口口 |--⑤-|
41
口⑤⑥口 |--①②|
①⑦口口 |③-④-|
口②③口 |--⑤-|
口口口④ |⑥-⑦-|
42
口口口口 |①---|
口口①口 |--②-|
②②④④ |③---|
③③口口 |--④-|
43
口口口口 |①---|
②②口口 |--②-|
口口口口
口口①①

⑥⑥③③
口口口口
口口口口 |③-④-|
④④⑤⑤ |⑤-⑥-|
44
口口口口 |①---|
口①①口 |----|
口①①口 |----|
口口口口 |----|
45
①①⑤⑤ |①---|
③③⑤⑤ |②---|
②②口口 |③-④-|
④④口口 |--⑤-|
46
口口口口 |--①②|
①口口口 |③-④-|
口②③口 |--⑤-|
⑤⑥口④ |⑥---|
47
①口①口 |①---|
口②口② |②---|
口口口口
口口口口

口口口口
口口⑤⑤
③口③口 |③-④-|
口④④口 |--⑤-|
48
②②④④ |--①-|
口口口口 |②-③-|
①①③③ |④-⑤-|
⑤⑥口口 |⑥---|
49
①①⑤⑤ |①---|
③③⑤⑤ |②---|
②②口口 |③-④-|
④④口口 |--⑤-|
50
口⑤⑥口 |--①②|
①⑦口口 |③-④-|
口②③口 |--⑤-|
口口口④ |⑥-⑦-|
51
口口口口 |①---|
口口口口 |----|
①口口①
口口口口

口口口口
口口口口
口口②② |----|
口口口口 |--②-|
52
口口口口 |①---|
②②口口 |--②-|
口口口口
口口①①

⑥⑥③③
口口口口
口口口口 |③-④-|
④④⑤⑤ |⑤-⑥-|
53
口口口口 |①---|
口①①口 |----|
口①①口 |----|
口口口口 |----|
54
口②口口 |①-②-|
②③①口 |--③-|
口①③②
口口②口

口口④⑥
⑥口⑤④
④⑤口⑥ |④---|
⑥④口口 |⑤-⑥-|

不確定度: 0

最終更新:2014年12月11日 22:33