Garakuta Doll Play
t+pazolite 「maimai」より

BASIC

Level: 5
BPM: 256
Notes: 410

1
口口口口 |----|
口口口口 |----|
口口口口 |----|
口口口口 |----|
2
口口口口 |①---|
口①口口 |----|
口口③③ |②---|
口②口口 |--③-|
3
口口口口 |----|
口口口口 |----|
口口口口 |----|
口口口口 |----|
4
口口口口 |①---|
口口①口 |----|
③③口口 |②---|
口口②口 |--③-|
5
口口口口 |----|
口口口口 |----|
口口口口 |----|
口口口口 |----|
6
口口口口 |①---|
口①口口 |----|
口口③③ |②---|
口②口口 |--③-|
7
口口口口 |----|
口口口口 |----|
口口口口 |----|
口口口口 |----|
8
口口口口 |①---|
口口①口 |----|
③③口口 |②---|
口口②口 |--③-|
9
口口口口 |----|
口口口口 |----|
口口口口 |----|
口口口口 |----|
10
①①①① |①---|
口口口口 |----|
口口口口 |----|
口口口口 |----|
11
口口口口 |----|
口口口口 |----|
口口口口 |----|
口口口口 |----|
12
口口口口 |①---|
口口口口 |----|
①①①① |----|
口口口口 |----|
13
口口口口 |----|
口口口口 |----|
口口口口 |----|
口口口口 |----|
14
口口口口 |①---|
口口口口 |----|
口口口口 |----|
①①①① |----|
15
口口口口 |①---|
口口口口 |----|
口①①口 |----|
口口口口 |----|
16
①口口① |①---|
②口口② |----|
口口口口 |②---|
口口口口 |----|
17
口口口口 |①---|
口口口口 |----|
①口口① |----|
口口口口 |----|
18
口口口口 |①---|
口①②口 |②---|
口③④口 |③---|
口口口口 |④---|
19
①口口口 |①---|
口口口口 |----|
②口口口 |②---|
口口口口 |----|
20
口口口口 |①---|
口②①口 |②---|
口④③口 |③---|
口口口口 |④---|
21
口口口① |①---|
口口口口 |----|
口口口② |②---|
口口口口 |----|
22
口口口口 |①---|
口①②口 |②---|
口③④口 |③---|
口口口口 |④---|
23
①口口口 |①---|
口口口口 |----|
②口口口 |②---|
口口口口 |----|
24
口①①口 |①---|
口口口口 |----|
口口口口 |----|
口口口口 |----|
25
口口口口 |①---|
口①①口 |----|
口口口口 |----|
口口口口 |----|
26
口口口口 |①---|
口口口口 |----|
口口口口 |----|
口①口口 |----|
27
口口口口 |①---|
口口口口 |----|
口口口口 |----|
口口①口 |----|
28
口口口口 |①---|
口②①口 |②---|
口④③口 |③---|
口口口口 |④---|
29
口口口① |①---|
口口口口 |----|
口口口② |②---|
口口口口 |----|
30
口口口口 |①---|
口①②口 |②---|
口③④口 |③---|
口口口口 |④---|
31
①口口口 |①---|
口口口口 |----|
②口口口 |②---|
口口口口 |----|
32
口①①口 |①---|
口口口口 |----|
口口口口 |----|
口口口口 |----|
33
口口口口 |①---|
口①①口 |----|
口口口口 |----|
口口口口 |----|
34
口口①口 |①---|
口②口口 |②---|
口口③口 |③---|
口④口口 |④---|
35
口口口口 |①---|
口②口口 |----|
口口口口 |②---|
口口①口 |----|
36
口①口口 |①---|
口口②口 |②---|
口③口口 |③---|
口口④口 |④---|
37
口口口口 |①---|
口口②口 |----|
口口口口 |②---|
口①口口 |----|
38
口口①口 |①---|
口②口口 |②---|
口口③口 |③---|
口④口口 |④---|
39
口口口口 |①---|
口②口口 |----|
口口口口 |②---|
口口①口 |----|
40
①口口① |①---|
口口口口 |----|
口口口口 |----|
口口口口 |----|
41
口口口口 |①---|
①口口① |----|
口口口口 |----|
口口口口 |----|
42
口口口① |①---|
②口口口 |②---|
口口口③ |③---|
④口口口 |④---|
43
口口口口 |①---|
口②口口 |----|
口口口口 |②---|
口口①口 |----|
44
①口口口 |①---|
口口口② |②---|
③口口口 |③---|
口口口④ |④---|
45
口口口口 |①---|
口口②口 |----|
口口口口 |②---|
口①口口 |----|
46
口口口① |①---|
②口口口 |②---|
口口口③ |③---|
④口口口 |④---|
47
④口口口 |①---|
口口口③ |②---|
②口口口 |③---|
口口口① |④---|
48
口①①口 |①---|
口口口口 |----|
口口口口 |----|
口口口口 |----|
49
口口口口 |①---|
口①①口 |----|
口口口口 |----|
口口口口 |----|
50
口口口口 |①---|
口口口① |----|
口口口口 |----|
口口口口 |----|
51
口口口口 |①---|
口①口口 |----|
口口口口 |----|
口口口口 |----|
52
口口口口 |①---|
口口口口 |----|
口口口① |----|
口口口口 |----|
53
口口口口 |①---|
口口口口 |----|
口①口口 |----|
口口口口 |----|
54
口口口口 |①---|
①口口口 |----|
口口口口 |----|
口口口口 |----|
55
口口口口 |①---|
口口①口 |----|
口口口口 |----|
口口口口 |----|
56
口口口口 |①---|
口口口口 |----|
①口口口 |----|
口口口口 |----|
57
口口口口 |①---|
口口口口 |----|
口口①口 |----|
口口口口 |----|
58
口口口口 |①---|
口①①口 |----|
口口口口 |----|
口口口口 |----|
59
①①①① |①---|
口口口口 |----|
口口口口 |----|
口口口口 |----|
60
口口口口 |①---|
口口口口 |----|
口口口口 |----|
①①①① |----|
61
①①①① |①---|
口口口口 |----|
口口口口 |----|
口口口口 |----|
62
口口口口 |①---|
口口口口 |----|
口口口口 |----|
①①①① |----|
63
口口口口 |①---|
口①口口 |----|
口①口口 |----|
口口口口 |----|
64
口口口口 |①---|
口口①口 |----|
口口①口 |----|
口口口口 |----|
65
口①①口 |①---|
口口口口 |----|
口口口口 |----|
口口口口 |----|
66
①口口口 |①---|
②口口口 |②---|
③口口口 |③---|
④口口口 |④---|
67
口④口口 |①---|
口口③口 |②---|
口②口口 |③---|
口口①口 |④---|
68
口口口① |①---|
口口口② |②---|
口口口③ |③---|
口口口④ |④---|
69
口口④口 |①---|
口③口口 |②---|
口口②口 |③---|
口①口口 |④---|
70
①口口口 |①---|
②口口口 |②---|
③口口口 |③---|
④口口口 |④---|
71
口④口口 |①---|
口口③口 |②---|
口②口口 |③---|
口口①口 |④---|
72
口口口① |①---|
口口口② |②---|
口口口③ |③---|
口口口④ |④---|
73
口口口口 |①---|
口①①口 |----|
口口口口 |----|
口口口口 |----|
74
口口口④ |①---|
③口口口 |②---|
口口口② |③---|
①口口口 |④---|
75
口①口口 |①---|
口②口口 |②---|
口③口口 |③---|
口④口口 |④---|
76
④口口口 |①---|
口口口③ |②---|
②口口口 |③---|
口口口① |④---|
77
口口①口 |①---|
口口②口 |②---|
口口③口 |③---|
口口④口 |④---|
78
口口口④ |①---|
③口口口 |②---|
口口口② |③---|
①口口口 |④---|
79
口①口口 |①---|
口②口口 |②---|
口③口口 |③---|
口④口口 |④---|
80
口口口口 |①---|
①口口① |----|
口口口口 |----|
口口口口 |----|
81
口口口口 |①---|
口口口口 |----|
①口口① |----|
口口口口 |----|
82
①①①① |①---|
口口口口 |----|
口口口口 |----|
口口口口 |----|
83
口口口口 |----|
口口口口 |----|
口口口口 |----|
口口口口 |----|
84
口口口口 |①---|
口口口口 |----|
①口口① |----|
口口口口 |----|
85
口口口口 |----|
口口口口 |----|
口口口口 |----|
口口口口 |----|
86
口口口口 |①---|
口口口口 |----|
口口口口 |----|
①口口① |----|
87
口口口口 |----|
口口口口 |----|
口口口口 |----|
口口口口 |----|
88
口口口口 |①---|
口口口口 |----|
①口口① |----|
口口口口 |----|
89
口口口口 |----|
口口口口 |----|
口口口口 |----|
口口口口 |----|
90
口口口口 |①---|
①②口口 |----|
口口口口 |②---|
口口口口 |----|
91
口口口口 |①---|
口口②① |----|
口口口口 |②---|
口口口口 |----|
92
口口口口 |①---|
口口口口 |----|
①②口口 |②---|
口口口口 |----|
93
口口口口 |①---|
口口口口 |----|
口口②① |②---|
口口口口 |----|
94
口口口口 |①---|
①②口口 |----|
口口口口 |②---|
口口口口 |----|
95
口口口口 |①---|
口口②① |----|
口口口口 |②---|
口口口口 |----|
96
口口口口 |①---|
口口口口 |----|
口②②口 |②---|
口①①口 |----|
97
口口口口 |①---|
口①①口 |----|
口口口口 |----|
口口口口 |----|
98
口①口口 |①---|
口②口口 |②---|
口口④口 |③---|
口口③口 |④---|
99
口口口口 |①---|
口口④③ |②---|
①②口口 |③---|
口口口口 |④---|
100
口①口口 |①---|
口②口口 |②---|
口口④口 |③---|
口口③口 |④---|
101
口口口口 |①---|
口口④③ |②---|
①②口口 |③---|
口口口口 |④---|
102
①口口口 |①---|
②口口口 |②---|
口口口④ |③---|
口口口③ |④---|
103
口口④③ |①---|
口口口口 |②---|
口口口口 |③---|
①②口口 |④---|
104
口口口口 |----|
口口口口 |----|
口①①口 |①---|
口口口口 |----|
105
口口口口 |①---|
口①①口 |----|
口口口口 |----|
口口口口 |----|
106
①①口口 |①---|
②②口口 |②---|
口口④④ |③---|
口口③③ |④---|
107
口口④③ |①---|
口口④③ |②---|
①②口口 |③---|
①②口口 |④---|
108
①①口口 |①---|
②②口口 |②---|
口口④④ |③---|
口口③③ |④---|
109
口口④③ |①---|
口口④③ |②---|
①②口口 |③---|
①②口口 |④---|
110
①①口口 |①---|
②②口口 |②---|
口口④④ |③---|
口口③③ |④---|
111
口口④③ |①---|
口口④③ |②---|
①②口口 |③---|
①②口口 |④---|
112
口口口口 |----|
口口口口 |----|
口①①口 |①---|
口口口口 |----|
113
口口口口 |①---|
口①①口 |----|
口口口口 |----|
口口口口 |----|
114
口口口① |①---|
口④口口 |②---|
②口口口 |③---|
口口③口 |④---|
115
②口①口 |①---|
口口口口 |②---|
口口口③ |③---|
口④口口 |④---|
116
口口口① |①---|
②口口口 |②---|
口④口口 |③---|
口口③口 |④---|
117
②④口口 |①---|
口口③① |②---|
口口口口 |③---|
口口口口 |④---|
118
口口③口 |①---|
④口口口 |②---|
口口口① |③---|
口②口口 |④---|
119
口④口口 |①---|
口口口③ |②---|
口口①口 |③---|
②口口口 |④---|
120
口口口口 |①---|
口口③口 |②---|
口④口① |③---|
口②口口 |④---|
121
④口③口 |①---|
②口口口 |②---|
口口口口 |③---|
口口口① |④---|
122
口口口口 |①---|
③①①③ |②---|
口②②口 |③---|
④口口④ |④---|
123
③口口③ |①---|
口②②口 |②---|
④口口④ |③---|
口①①口 |④---|
124
口①①口 |①---|
③口口③ |②---|
口②②口 |③---|
④口口④ |④---|
125
③口口③ |①---|
口②②口 |②---|
④口口④ |③---|
口①①口 |④---|
126
口①①口 |①---|
③口口③ |②---|
口②②口 |③---|
④口口④ |④---|
127
④口口④ |①---|
口③③口 |②---|
②口口② |③---|
口①①口 |④---|
128
口口口口 |----|
口口口口 |----|
口①①口 |①---|
口口口口 |----|
129
①①①① |①---|
口口口口 |----|
口口口口 |----|
口口口口 |----|
130
口口口口 |①---|
口①①口 |----|
口①①口 |----|
口口口口 |----|

不確定度: 0

最終更新:2014年11月06日 17:37