Garakuta Doll Play
t+pazolite 「maimai」より

EXTREME

Level: 10
BPM: 256
Notes: 982

1
口口口口 |----|
口口口口 |----|
口口口口 |----|
口口口口 |----|
2
④①口③ |①---|
④①口② |----|
口口口口 |②-③-|
口口口口 |--④-|
3
口口口口 |----|
口口口口 |----|
④②③① |①-②-|
口口口口 |③-④-|
4
④口口③ |①---|
④口口② |----|
口口口口 |②-③-|
口①口① |--④-|
5
口口口口 |----|
口口口口 |----|
口口口口 |①---|
口②①口 |②---|
6
④①口③ |①---|
④①口② |----|
口口口口 |②-③-|
口口口口 |--④-|
7
口口口口 |----|
口口口口 |----|
④②③① |①-②-|
口口口口 |③-④-|
8
口口口③ |①---|
口口口② |----|
口口口口 |②-③-|
④①④① |--④-|
9
口口口口 |----|
口②①口 |----|
口①②口 |①---|
口口口口 |②---|
10
①口⑦① |①②③④|
②口口⑦ |----|
③⑥口口 |⑤-⑥-|
④口⑤口 |--⑦-|
11
口口口① |----|
②口口口 |----|
口口口③ |①-②-|
④口口口 |③-④-|
12
⑦①①口 |①②③④|
⑦②口⑥ |----|
⑤③口口 |⑤-⑥-|
口④口口 |--⑦-|
13
口口口口 |----|
口①②口 |----|
口②①口 |①---|
口口口口 |②---|
14
①⑦口① |①②③④|
⑦口口② |----|
口口⑥③ |⑤-⑥-|
口⑤口④ |--⑦-|
15
②口口口 |①---|
口口口③ |----|
④口口口 |②-③-|
口口①⑤ |④-⑤-|
16
口①①口 |①②③④|
口口②口 |----|
口口③口 |⑤---|
口⑤④口 |----|
17
②口③② |①---|
④③口① |②---|
②口④③ |③---|
①④口① |④---|
18
④①口口 |①---|
口口①③ |②---|
③口口口 |③---|
②口④② |④---|
19
口④③② |①---|
⑤口口口 |②-③-|
口①①② |④---|
⑤⑥口口 |⑤-⑥-|
20
④⑤⑤口 |①---|
口②口口 |②-③-|
④口③口 |④---|
口口①口 |⑤---|
21
口口口⑧ |①-②③|
口口①⑦ |④-⑤⑥|
口②口⑥ |⑦⑧--|
口④③⑤ |----|
22
①口②口 |①---|
口①口④ |②---|
口②口口 |③---|
④口③③ |④---|
23
⑥①口⑤ |①-②③|
②③④口 |④-⑤-|
⑥⑦①⑦ |⑥---|
口⑦口⑦ |⑦---|
24
口④③口 |----|
④②①③ |--①-|
口口口⑤ |②-③-|
口口口口 |④-⑤-|
25
口口口口 |①---|
口口口口 |②---|
③④⑤口 |③-④-|
①①②② |⑤---|
26
口口①① |①---|
③④口② |--②-|
④口口① |③---|
③④口② |④---|
27
⑤④②③ |①---|
⑤口①口 |②-③-|
口①④口 |④---|
口口①口 |⑤---|
28
口⑤④⑤ |①---|
口口口① |②-③-|
口④口③ |④---|
②口口① |⑤---|
29
⑧口口口 |①-②③|
⑦①口口 |④-⑤⑥|
⑥口②口 |⑦⑧--|
⑤③④口 |----|
30
④口①① |①---|
口②口③ |②---|
口口口口 |③---|
口③④② |④---|
31
口①口口 |①-②③|
⑦口②口 |④-⑤-|
⑦③④口 |⑥---|
⑤口口⑥ |⑦---|
32
①③⑤⑦ |①-②-|
口口口口 |③-④-|
口口口口 |⑤-⑥-|
⑧②④⑥ |⑦-⑧-|
33
口⑤⑩口 |①-②-|
口⑥②① |③-④-|
④⑦③口 |⑤⑥⑦⑧|
口⑧⑨口 |⑨-⑩-|
34
①口口② |①---|
①口②② |②---|
④④③③ |③---|
④口口③ |④---|
35
口⑥⑧口 |①---|
②③④⑤ |②③④⑤|
口口⑦口 |⑥---|
口①①口 |⑦-⑧-|
36
③口口④ |①---|
③③④④ |②---|
②②口① |③---|
②口口① |④---|
37
口⑤⑥口 |①---|
口口口口 |②-③-|
口④③② |④---|
口①①口 |⑤-⑥-|
38
①口口② |①---|
①口②② |②---|
④④③③ |③---|
④口口③ |④---|
39
②③④⑥ |①---|
②③④⑤ |②-③-|
口口口口 |④---|
⑥①①口 |⑤-⑥-|
40
口口口口 |----|
⑤口口口 |--①-|
③①②④ |②-③-|
口③④口 |④-⑤-|
41
口③②① |①---|
口口口口 |②---|
口口口口 |③---|
口④口口 |④---|
42
①口口② |①---|
①口②② |②---|
④④③③ |③---|
④口口③ |④---|
43
口⑥⑧口 |①---|
②③④⑤ |②③④⑤|
口口⑦口 |⑥---|
口①①口 |⑦-⑧-|
44
③口口④ |①---|
③③④④ |②---|
②②口① |③---|
②口口① |④---|
45
口⑤⑥口 |①---|
口口口口 |②-③-|
口④③② |④---|
口①①口 |⑤-⑥-|
46
口口口② |①---|
⑥①口② |②---|
①⑤④口 |③-④-|
①口口③ |⑤-⑥-|
47
②⑦⑧③ |①---|
口口口④ |②---|
口口口⑤ |③④⑤⑥|
口①①⑥ |⑦-⑧-|
48
④口口④ |①---|
①②③口 |--②-|
②③口口 |--③-|
①②③口 |--④-|
49
口口口口 |----|
①口口② |----|
①口口② |①---|
口口口口 |②---|
50
口①①③ |①---|
口口口口 |--②-|
口口口口 |----|
口口口② |③---|
51
口口口口 |----|
口口③口 |①---|
口②口① |②---|
口口口口 |③---|
52
③①口口 |①---|
①口口口 |--②-|
口口口口 |----|
②口口口 |③---|
53
口口口口 |----|
口③口口 |①---|
①口②口 |②---|
口口口口 |③---|
54
口口①③ |①---|
口口口① |--②-|
口口口口 |----|
口口口② |③---|
55
口口口口 |----|
口口③口 |①---|
口②口① |②---|
口口口口 |③---|
56
③①口口 |①---|
①口口口 |--②-|
口口口口 |----|
②口口口 |③---|
57
口口口口 |----|
口③口口 |①---|
①口②口 |②---|
口口口口 |③---|
58
口口①口 |①---|
口口口① |----|
口口口口 |----|
口口口口 |----|
59
②口口① |①---|
③①②③ |--②-|
③②①③ |----|
①口口② |③---|
60
口①①口 |①---|
口口口口 |----|
口口口口 |----|
口①①口 |----|
61
②口口① |①---|
③①②③ |--②-|
③②①③ |----|
①口口② |③---|
62
④①①③ |①---|
⑥口口⑤ |----|
口口口口 |②---|
②①①口 |③④⑤⑥|
63
口②口口 |①---|
口口口口 |----|
口⑥⑤① |②---|
口④③口 |③④⑤⑥|
64
口口口口 |①---|
④口①口 |②---|
口口口③ |③---|
②口口口 |④---|
65
口口口① |①---|
口口口口 |----|
口②②口 |②---|
口口口口 |----|
66
①⑤④口 |①---|
⑤③②④ |②-③-|
口口口口 |④---|
口口①口 |⑤---|
67
④口口口 |①-②-|
口口口口 |③---|
④③⑤② |④---|
①口⑥① |⑤-⑥-|
68
口④⑤① |①---|
④②③⑤ |②-③-|
口口口口 |④---|
口①口口 |⑤---|
69
口口口⑦ |①-②③|
口口口口 |④-⑤-|
⑤②③④ |⑥---|
①⑥口① |⑦---|
70
①⑤④口 |①---|
⑤③②④ |②-③-|
口口口口 |④---|
口口①口 |⑤---|
71
⑩⑨⑧⑦ |①-②③|
口口口口 |④-⑤-|
④③②⑤ |⑥---|
①口⑥① |⑦⑧⑨⑩|
72
口口口口 |①---|
口口口① |②-③-|
⑤③②④ |④---|
⑤口口④ |⑤---|
73
口口口口 |①---|
口①①口 |----|
口②②口 |②---|
口①①口 |----|
74
①⑤④口 |①---|
口②③口 |②-③-|
⑤口口④ |④---|
口口口① |⑤---|
75
④口口口 |①-②-|
④口口② |③---|
口①⑥口 |④---|
口③①⑤ |⑤-⑥-|
76
口④⑤① |①---|
口③②口 |②-③-|
④口口⑤ |④---|
①口口口 |⑤---|
77
口口口⑥ |①-②③|
②口口⑥ |④-⑤-|
⑦③①口 |⑥---|
⑤①④口 |⑦---|
78
①③口口 |①---|
④口②⑤ |②-③-|
口口口口 |④---|
口口口① |⑤---|
79
⑥口口⑦ |①-②③|
口口口口 |④-⑤-|
口④③② |⑥-⑦-|
⑧①⑤⑨ |⑧-⑨-|
80
口①②口 |①-②-|
③④⑤⑥ |③④⑤⑥|
⑦⑧⑨⑩ |⑦⑧⑨⑩|
口⑪⑪口 |⑪---|
81
①口⑥② |①-②-|
口口⑤口 |③-④-|
口口口口 |⑤---|
③口口④ |⑥---|
82
④①口③ |①---|
④①口② |----|
口口口口 |②-③-|
口口口口 |--④-|
83
口口口口 |----|
口口口口 |----|
④②③① |①-②-|
口口口口 |③-④-|
84
④口口③ |①---|
④口口② |----|
口口口口 |②-③-|
口①口① |--④-|
85
口口口口 |----|
口口口口 |----|
口口口口 |①---|
口②①口 |②---|
86
④①口③ |①---|
④①口② |----|
口口口口 |②-③-|
口口口口 |--④-|
87
口口口口 |----|
口口口口 |----|
④②③① |①-②-|
口口口口 |③-④-|
88
口口口③ |①---|
口口口② |----|
口口口口 |②-③-|
④①④① |--④-|
89
口口口口 |----|
口②口口 |----|
口口①口 |①---|
口口口口 |②---|
90
口⑥口① |①---|
⑤口口口 |②---|
口④口口 |③-④-|
③口口② |⑤-⑥-|
91
口口①口 |①---|
口③口① |②-③-|
⑤口②④ |④---|
口⑤④口 |⑤---|
92
口①口口 |①---|
①⑦⑥口 |②-③-|
口⑤④口 |④-⑤-|
③口口② |⑥-⑦-|
93
②口①③ |①---|
口口口① |②-③-|
口口口⑤ |④-⑤-|
④口⑤⑥ |--⑥-|
94
口②口口 |①---|
②⑥⑤口 |②---|
①④③口 |③-④-|
口①口口 |⑤-⑥-|
95
口口①② |①---|
口口口① |②-③-|
⑥口口④ |④---|
③⑥④⑤ |⑤-⑥-|
96
②⑧③口 |①-②-|
④①①口 |③-④-|
口⑤⑤口 |⑤-⑥-|
⑥口⑦口 |⑦-⑧-|
97
③口口① |①---|
③口口② |②---|
③口口② |③---|
口口口① |----|
98
口口口口 |①---|
口①②口 |②---|
口②①口 |③-④-|
③⑤④⑥ |⑤-⑥-|
99
口④①口 |①---|
④②口① |②-③-|
⑤⑥③口 |④---|
口口口口 |⑤-⑥-|
100
⑤口口④ |①---|
口⑦①口 |②-③-|
口口⑥口 |④-⑤-|
③口①② |⑥-⑦-|
101
口④①口 |①---|
④口③① |②-③-|
口②⑦口 |④---|
口⑥口⑤ |⑤-⑥⑦|
102
②口口② |①---|
口①口口 |②---|
口⑤口⑥ |③-④-|
③口④口 |⑤-⑥-|
103
⑥④①⑥ |①---|
④⑤⑤① |②-③-|
口⑥⑥口 |④---|
口②口③ |⑤-⑥-|
104
口⑤④口 |--①-|
⑥口口③ |②-③-|
⑦口口② |④-⑤-|
口口①口 |⑥-⑦-|
105
口③③口 |①---|
口口口口 |----|
口口口口 |②---|
②①口② |③---|
106
口口口口 |①---|
口①②口 |②---|
口②①口 |③-④-|
⑤③⑥④ |⑤-⑥-|
107
④④①① |①---|
④②口① |②-③-|
⑤⑥③口 |④---|
口口口口 |⑤-⑥-|
108
口口口口 |①---|
口⑥①口 |②-③-|
⑦口⑤口 |④-⑤-|
②③①④ |⑥-⑦-|
109
⑤⑤①① |①---|
⑤⑥④① |②-③-|
口③⑦口 |④-⑤-|
口口②口 |--⑥⑦|
110
口口口口 |①---|
口口口口 |②---|
③⑤口④ |③-④-|
②①⑥② |⑤-⑥-|
111
④④①① |①---|
④⑥⑥① |②-③-|
⑤口③⑤ |④---|
⑥②口⑥ |⑤-⑥-|
112
口口①② |--①-|
口口口③ |②-③-|
口⑥⑦口 |④-⑤-|
口④⑤口 |⑥-⑦-|
113
口①口口 |①---|
口口①口 |----|
①口口口 |----|
口口口① |----|
114
③⑤⑦① |①-②-|
⑦⑤口① |③-④-|
④口②⑧ |⑤-⑥-|
④⑧②⑥ |⑦-⑧-|
115
④⑥口② |①-②-|
口⑥①② |③-④-|
⑤⑦③口 |⑤-⑥-|
⑤口③口 |⑦---|
116
⑥⑧①④ |①-②-|
②⑧③④ |③-④-|
⑦口⑤① |⑤-⑥-|
⑦②⑤口 |⑦-⑧-|
117
口口②口 |①-②-|
⑤口⑦口 |③-④-|
口①口⑥ |⑤-⑥-|
口③口④ |⑦---|
118
③⑤⑦① |①-②-|
⑦⑤口① |③-④-|
④口②⑧ |⑤-⑥-|
④⑧②⑥ |⑦-⑧-|
119
④⑥口② |①-②-|
口⑥①② |③-④-|
⑤⑦③口 |⑤-⑥-|
⑤口③口 |⑦---|
120
⑥⑧①④ |①-②-|
②⑧③④ |③-④-|
⑦口⑤① |⑤-⑥-|
⑦②⑤口 |⑦-⑧-|
121
口口④口 |①-②-|
⑤口⑦口 |③-④-|
口①口⑥ |⑤-⑥-|
口③口② |⑦---|
122
①①⑤⑤ |①-②-|
口④口⑦ |③-④-|
⑥口口口 |⑤-⑥-|
②⑧③口 |⑦-⑧-|
123
⑦⑧⑨⑩ |①-②-|
④口③口 |③-④-|
口②⑤① |⑤-⑥-|
⑥口⑤① |⑦⑧⑨⑩|
124
口口口口 |①-②-|
⑤②⑥① |③-④-|
①⑧口⑤ |⑤-⑥-|
口③⑦④ |⑦-⑧-|
125
⑦⑧⑨⑩ |①-②-|
口③口② |③-④-|
④口①⑥ |⑤-⑥-|
⑤口口口 |⑦⑧⑨⑩|
126
口口口口 |①-②-|
①⑥③口 |③-④-|
⑤⑧⑦口 |⑤-⑥-|
口④口② |⑦-⑧-|
127
①②③④ |①②③④|
⑫⑬⑭⑤ |⑤⑥⑦⑧|
⑪口⑮⑥ |⑨⑩⑪⑫|
⑩⑨⑧⑦ |⑬⑭⑮-|
128
②口口① |----|
口口口口 |----|
口口口口 |①-②-|
④口口③ |③-④-|
129
口口口口 |①---|
口①①口 |----|
口①①口 |----|
口口口口 |----|
130
①口口① |①---|
口口口口 |----|
口口口口 |----|
口口口口 |----|

不確定度: 0

最終更新:2014年11月06日 17:36