black bullet
fripSide
EXTREME
Level: 9
BPM: 155
Notes: 567
1
口口口口 |----|
口口口口 |----|
口口口口 |----|
口口口口 |----|
2
口口⑦口 |①-②-|
口①③⑦ |③-④-|
口④②口 |--⑤-|
口⑥口⑤ |⑥-⑦-|
3
⑥③⑥口 |--①-|
③口口口 |②-③-|
口口⑤④ |--④-|
①口②口 |⑤-⑥-|
4
口③口③ |--①-|
口口口口 |②-③-|
①②口口
口口口口
口口⑤口
口口口⑤
⑤口口口 |--④-|
④⑤口④ |--⑤-|
5
④①口④ |--①-|
①②②口 |--②-|
口②②① |--③-|
③口①③ |④---|
6
口③口口 |①---|
①③口① |②-③-|
①②②①
口口口口
⑦口⑤口
⑦口⑤口
口口口口 |④-⑤-|
口④⑥口 |⑥-⑦-|
7
口⑤⑤② |①-②-|
口口口② |③-④-|
口④④口 |--⑤-|
①⑥⑥③ |⑥---|
8
口③口口 |①---|
①③口① |②-③-|
①②②①
口口口口
⑦口⑤口
口口⑤⑦
⑦口口口 |④-⑤-|
口④⑥⑦ |⑥-⑦-|
9
口④④① |--①-|
②①②口 |--②-|
口②①② |--③-|
①③③口 |④---|
10
③口口⑥ |①--②|
口①口⑤ |--③-|
②口④口 |④--⑤|
口口口口 |--⑥-|
11
口口口⑥ |①--②|
口③口口 |--③-|
口①④⑤ |④--⑤|
②口口口 |--⑥-|
12
口口口⑤ |①--②|
①③口口 |--③-|
口②口⑥ |④--⑤|
口口④口 |--⑥-|
13
口③口口 |①--②|
口口口⑥ |--③-|
①口④口 |④--⑤|
口②口⑤ |--⑥-|
14
口口口口 |①--②|
①②口⑥ |--③-|
口③④口 |④--⑤|
口口口⑤ |--⑥-|
15
口口口口 |①--②|
口口口⑤ |--③-|
①口④口 |④--⑤|
③②口⑥ |--⑥-|
16
口③③口 |①--②|
口④④口 |--③-|
②⑥⑥② |④--⑤|
⑤①①⑤ |--⑥-|
17
①④口① |①--②|
口②口③ |③-④-|
⑤口口⑤ |⑤---|
口⑥⑥口 |⑥---|
18
①口口① |①--②|
口④口③ |③-④-|
口②口口
口口口口
口口口口
口口口口
口⑦⑤⑤ |⑤---|
口口口⑥ |⑥-⑦-|
19
口口口口 |①--②|
口⑤①口 |③-④-|
⑥口②④ |⑤---|
⑤③①口 |⑥---|
20
③口口口 |①--②|
①口口① |③-④-|
口④②口
口口口口
口⑤⑥口
⑦⑤口口
口口口口 |⑤---|
口口口口 |⑥-⑦-|
21
口④口① |①--②|
口口①③ |③-④-|
口②⑤⑤ |⑤---|
口口口⑥ |⑥---|
22
口口口④ |①--②|
口口①⑦ |③-④-|
⑥⑤②口 |⑤---|
⑤③①口 |⑥-⑦-|
23
③口口口 |①--②|
①①口口 |③-④-|
口口②口
口口口④
口⑤⑥口
口⑥口口
口⑤口口 |⑤---|
口口口口 |⑥---|
24
口④口① |①--②|
①⑥口③ |③-④-|
⑧②⑤⑤ |⑤--⑥|
口口口⑦ |⑦-⑧-|
25
④口口④ |①--②|
口口②口 |③-④-|
口①口口 |⑤---|
⑤③①⑤ |----|
26
口②①口 |①---|
④⑤⑤③ |②---|
口④③口 |③--④|
口①②口 |--⑤-|
27
口口口口 |①--②|
⑦口口⑤ |--③-|
⑥③③④ |④⑤-⑥|
①②②① |⑦---|
28
②口⑤① |①---|
口④③⑤ |②---|
口④③口 |③--④|
①口口② |--⑤-|
29
口①口口 |①--②|
①口口口 |--③-|
口口口口
②③③②
口口口口
⑦口口⑤
⑥口口④ |④⑤-⑥|
口口口口 |⑦---|
30
口①口③ |①---|
③口①口 |②---|
口口口口 |③--④|
口④⑤② |--⑤-|
31
④①①口 |①--②|
口④④① |--③-|
②⑤⑥③ |④--⑤|
②⑥⑤③ |--⑥-|
32
④①①④ |①--②|
①④④① |--③-|
③口口② |④--⑤|
②⑤⑤③ |----|
33
②①①② |①--②|
①②②① |--③-|
②①①② |----|
③③③③ |----|
34
①①①① |①---|
②口②③ |②-③-|
口口口口
口口口口
口口口⑤
口口口口
④口口⑥ |④---|
⑤④口口 |⑤-⑥-|
35
①口①⑨ |①-②-|
③口口② |③-④-|
⑤⑥③⑨ |⑤⑥-⑦|
⑧⑦口④ |⑧-⑨-|
36
①①③口 |①---|
②④口口 |②-③-|
④口②口 |④---|
⑤⑤口⑥ |⑤-⑥-|
37
①口⑨① |①-②-|
③口②⑨ |③-④-|
⑤⑥口③ |⑤⑥-⑦|
⑧⑦④口 |⑧-⑨-|
38
①④口① |①---|
②口③口 |②-③-|
④口口⑥ |④---|
⑤口②⑤ |⑤-⑥-|
39
①口①⑨ |①-②-|
③口③口 |③-④-|
⑤⑥②口 |⑤⑥-⑦|
⑧⑦④口 |⑧-⑨-|
40
①②⑤口 |①--②|
口口⑤⑤ |--③-|
口口⑤⑤ |④---|
口④③口 |⑤---|
41
②②口③ |①--②|
②口口口 |--③-|
③口口口
①口口①
口⑩⑪口
口⑧⑨口
口⑥⑦口 |④⑤⑥⑦|
口④⑤口 |⑧⑨⑩⑪|
42
①口口口 |①---|
②口口② |②-③-|
④口⑤⑥ |④---|
⑤④口③ |⑤-⑥-|
43
①⑨⑨① |①-②-|
③口②③ |③-④-|
⑤⑥口口 |⑤⑥-⑦|
⑧⑦④口 |⑧-⑨-|
44
①口口① |①---|
②③②④ |②-③-|
④⑤口口 |④---|
⑤口口⑥ |⑤-⑥-|
45
①口口① |①-②-|
③⑨⑨③ |③-④-|
⑤⑥②口 |⑤⑥-⑦|
⑧⑦④口 |⑧-⑨-|
46
①口①③ |①---|
②⑤口口 |②-③-|
④口④口 |④---|
⑤口②⑥ |⑤-⑥-|
47
①口③⑨ |①-②-|
③口①④ |③-④-|
⑤⑥口② |⑤⑥-⑦|
⑧⑦口口 |⑧-⑨-|
48
①②⑤口 |①--②|
口口⑤⑤ |--③-|
口口⑤⑤ |④---|
口④③口 |⑤---|
49
②②口③ |①--②|
②口口口 |--③-|
③口口口
①口口①
口⑩⑪口
口⑧⑨口
口⑥⑦口 |④⑤⑥⑦|
口④⑤口 |⑧⑨⑩⑪|
50
②⑥⑤② |①--②|
①口口③ |--③-|
⑥口口⑤ |④--⑤|
①④④③ |--⑥-|
51
①口口① |①---|
口口口口 |②---|
口①①口
②口口②
④口口④
口口口口
口口口口 |③---|
口③③口 |④---|
52
口③口口 |①---|
①③口① |②-③-|
①②②①
口口口口
⑦口⑤口
⑦口⑤口
口口口口 |④-⑤-|
口④⑥口 |⑥-⑦-|
53
口⑤⑤② |①-②-|
口口口② |③-④-|
口④④口 |--⑤-|
①⑥⑥③ |⑥---|
54
口③口口 |①---|
①③口① |②-③-|
①②②①
口口口口
⑦口⑤口
口口⑤⑦
⑦口口口 |④-⑤-|
口④⑥⑦ |⑥-⑦-|
55
口④④① |--①-|
②①②口 |--②-|
口②①② |--③-|
①③③口 |④---|
56
口口口口 |①②③④|
⑤口口⑤ |⑤---|
①②③④ |----|
口口口口 |----|
不確定度: 0