ルービックキューブ
otetsu feat.GUMI

ADVANCED

Level: 7
BPM: 140
Notes: 488

1
口口口口 |----|
口口口口 |----|
口口口口 |----|
口口口口 |----|
2
口口口口 |----|
口口口口 |----|
口口口口 |----|
口口口口 |----|
3
口口口口 |----|
口口口口 |----|
口口口口 |----|
口口口口 |----|
4
口口口口 |----|
口口口口 |----|
口口口口 |----|
口口口口 |----|
5
口口口口 |----|
口口口口 |----|
口口口口 |----|
口口口口 |----|
6
①①①① |①--②|
④④④④ |③---|
口⑥⑤口 |④--⑤|
口③②口 |⑥---|
7
①①①① |①--②|
④④④④ |③---|
⑤口口⑤ |④---|
口③②口 |⑤---|
8
④④④④ |①--②|
口⑤⑤口 |③---|
口③②口 |④---|
①①①① |⑤---|
9
口口口口 |①---|
④④④④ |②---|
③②②③ |③---|
①①①① |④---|
10
①①①① |①--②|
④④④④ |③---|
口⑥⑤口 |④--⑤|
口③②口 |⑥---|
11
①①①① |①--②|
④④④④ |③---|
⑤口口⑤ |④---|
口③②口 |⑤---|
12
④④④④ |①--②|
口⑤⑤口 |③---|
口③②口 |④---|
①①①① |⑤---|
13
口口口口 |①---|
口口口口 |②---|
②口口②
①①①①

口口口口
③③③③
口口口口 |③---|
④④④④ |④---|
14
口⑤④口 |①---|
口③②口 |②---|
口①口口 |③--④|
口口口口 |--⑤-|
15
口口口口 |--①-|
③④⑤口 |②---|
口②①口 |--③-|
口口口口 |④-⑤-|
16
④口口④ |①---|
口口口口 |②---|
③①①③ |③---|
口②②口 |--④-|
17
口口⑤口 |--①-|
口口口口 |②-③-|
口④③口 |④--⑤|
口②①口 |----|
18
口口口口 |①---|
④口口口 |②---|
口③②① |③---|
口口口口 |--④-|
19
口②①口 |--①-|
口④③口 |②-③-|
口⑥⑤口 |④-⑤-|
口口⑦口 |⑥-⑦-|
20
口④④口 |①---|
口口口口 |②---|
②③口口 |③---|
口①口口 |--④-|
21
口口口口 |--①-|
口②①口 |②---|
口口口口 |----|
口口口口 |----|
22
口口口口 |----|
口②③口 |--①-|
口③②口 |②---|
口①①口 |③---|
23
口口⑦⑦ |①-②-|
口口口⑥ |③-④-|
口口口⑤ |⑤-⑥-|
①②③④ |⑦---|
24
⑦⑦口口 |①-②-|
⑥口口口 |③-④-|
⑤口口口 |⑤-⑥-|
④③②① |⑦---|
25
口口口口 |①-②-|
⑧口口⑦ |③-④-|
⑥口口⑤ |⑤-⑥-|
④②①③ |⑦-⑧-|
26
⑥口口⑥ |①-②-|
口④③口 |③-④-|
⑤②①⑤ |⑤--⑥|
口口口口 |----|
27
口口①口 |①-②-|
②④口口 |③-④-|
口口口口
口口③口

口口⑦口
口口口口
口⑧口⑤ |⑤-⑥-|
口⑥口口 |⑦-⑧-|
28
口⑤⑤口 |①-②-|
②口①口 |③-④-|
④⑥⑥③ |⑤--⑥|
口口口口 |----|
29
口②②口 |①--②|
口③口口 |-③--|
①③口①
口口口口

⑤口口⑤
⑥口④⑥
⑦口④⑦ |④-⑤-|
口口口口 |⑥-⑦-|
30
口口口口 |①---|
口口口口 |----|
口①②口 |②---|
口②①口 |----|
31
口口口口 |①---|
口口口口 |②---|
口口③③ |③---|
①②口④ |--④-|
32
口口口口 |----|
③③口口 |①---|
②②口口 |②---|
口①口口 |③---|
33
口口口口 |①---|
口口④口 |②---|
口口③③ |③---|
①②口口 |--④-|
34
口口口口 |----|
口口口口 |①---|
①①口口 |②---|
口口②② |----|
35
口口⑧⑦ |①-②-|
口口口⑥ |③-④-|
口口口⑤ |⑤-⑥-|
①②③④ |⑦-⑧-|
36
②①口口 |①-②-|
③口⑦口 |③-④-|
④⑤⑥口 |⑤-⑥-|
口口口口 |⑦---|
37
口⑧⑦口 |①-②-|
口⑥⑤口 |③-④-|
口④③口 |⑤-⑥-|
口②①口 |⑦-⑧-|
38
②⑦⑦① |①-②-|
②④③① |③-④-|
口⑥⑤口 |⑤-⑥-|
口口口口 |⑦---|
39
口⑧⑦口 |①-②-|
⑥口口⑤ |③-④-|
口④③口 |⑤-⑥-|
口②①口 |⑦-⑧-|
40
口口⑦口 |①-②-|
⑥口①⑤ |③-④-|
②⑧口口 |⑤-⑥-|
口④口③ |⑦-⑧-|
41
口口口口 |①-②-|
口④口口 |③-④-|
口口①口
②口口③

口口口口
口口⑤口
口⑥⑦口 |⑤-⑥-|
口⑧口口 |⑦-⑧-|
42
⑤口口⑤ |①-②-|
④口口④ |③-④-|
③口口③ |⑤---|
②口①② |----|
43
⑥②①⑤ |①-②-|
口口口口 |③-④-|
口口口口 |⑤-⑥-|
⑧④③⑦ |⑦-⑧-|
44
⑥口口⑤ |①-②-|
口②①口 |③-④-|
口口口口 |⑤-⑥-|
⑧④③⑦ |⑦-⑧-|
45
口⑤④口 |①-②-|
口⑥③口 |③-④-|
口⑦②口 |⑤-⑥-|
口⑧①口 |⑦-⑧-|
46
口⑤④口 |①-②-|
口⑥③口 |③-④-|
口⑦②口 |⑤-⑥-|
口⑧①口 |⑦-⑧-|
47
⑥②①⑤ |①-②-|
口口口口 |③-④-|
口④③口 |⑤-⑥-|
⑧口口⑦ |⑦-⑧-|
48
⑥口口⑤ |①-②-|
口②①口 |③-④-|
口口口口 |⑤-⑥-|
⑧④③⑦ |⑦-⑧-|
49
口⑤④口 |①-②-|
口⑥③口 |③-④-|
口⑦②口 |⑤-⑥-|
口⑧①口 |⑦-⑧-|
50
口口口口 |①-②-|
⑦③①⑦ |③-④-|
⑥④②⑥ |⑤-⑥-|
⑤口口⑤ |⑦---|
51
口⑤④口 |①---|
口③②口 |②---|
口①口口 |③--④|
口口口口 |--⑤-|
52
口口口口 |--①-|
口⑤④口 |②---|
口②①口 |③---|
口③口口 |④-⑤-|
53
口口口口 |①-②-|
口口口口 |③-④-|
④③②① |--⑤-|
口⑥⑤口 |⑥---|
54
口口口口 |①---|
⑦⑥⑤④ |②-③-|
口②③口 |④-⑤-|
口口口① |⑥-⑦-|
55
③②①口 |--①-|
④⑤口口 |②---|
口⑥口口 |③-④-|
口口口口 |⑤-⑥-|
56
口口口口 |①--②|
口口口③ |--③-|
口口①口
口口口②

口口口口
口口口口
口⑤④口 |--④-|
口口口口 |⑤---|
57
④④口口 |①---|
口口口口 |②---|
口口口口 |③---|
①②③口 |--④-|
58
口口口口 |----|
口口①① |①---|
口口②② |②---|
③③口口 |③---|
59
口口④④ |①---|
口口口口 |②---|
①②③口 |③---|
口口口口 |--④-|
60
口口口口 |----|
①①口口 |①---|
③③②② |②---|
口口口口 |③---|
61
口口⑧⑦ |①-②-|
口口口⑥ |③-④-|
口口口⑤ |⑤-⑥-|
①②③④ |⑦-⑧-|
62
②①口口 |①-②-|
③口⑦口 |③-④-|
④⑤⑥口 |⑤-⑥-|
口口口口 |⑦---|
63
口⑧⑦口 |①-②-|
口⑥⑤口 |③-④-|
口④③口 |⑤-⑥-|
口②①口 |⑦-⑧-|
64
②⑦⑦① |①-②-|
②④③① |③-④-|
口⑥⑤口 |⑤-⑥-|
口口口口 |⑦---|
65
口⑧⑦口 |①-②-|
⑥口口⑤ |③-④-|
口④③口 |⑤-⑥-|
口②①口 |⑦-⑧-|
66
口口⑦口 |①-②-|
⑥口①⑤ |③-④-|
②⑧口口 |⑤-⑥-|
口④口③ |⑦-⑧-|
67
口口口口 |①-②-|
口④口口 |③-④-|
口口①口
②口口③

口口口口
口口⑤口
口⑥⑦口 |⑤-⑥-|
口⑧口口 |⑦-⑧-|
68
⑤口口⑤ |①-②-|
④口口④ |③-④-|
③口口③ |⑤---|
②口①② |----|
69
口口口口 |①---|
口①①口 |----|
口①①口 |----|
口口口口 |----|

不確定度: 0

最終更新:2014年12月11日 23:24