DANCE ALL NIGHT
Sota Fujimori

BASIC

Level: 3
BPM: 135
Notes: 245

1
口口口口 |----|
口口口口 |----|
口口口口 |----|
口口口口 |----|
2
③口口③ |①---|
口口口口 |----|
口①②口 |②---|
口口口口 |③---|
3
口口口口 |①---|
口口③② |②---|
口口④① |③---|
口口口口 |④---|
4
口③③口 |①---|
①②口口 |②---|
口口口口 |③---|
口口口口 |----|
5
口口口口 |①---|
①④口口 |②---|
②③口口 |③---|
口口口口 |④---|
6
口口口口 |①---|
口口口口 |②---|
口口②① |③---|
口③③口 |----|
7
口口口口 |①---|
口口③② |②---|
口口④① |③---|
口口口口 |④---|
8
口③③口 |①---|
①②口口 |②---|
口口口口 |③---|
口口口口 |----|
9
口口口口 |①---|
①④口口 |②---|
②③口口 |③---|
口口口口 |④---|
10
口口口口 |①---|
口口口口 |②---|
口口②① |③---|
口③③口 |----|
11
口口口② |①---|
口口口② |----|
口①口口 |②---|
口口口口 |----|
12
②口口口 |①---|
②口口口 |----|
口口①口 |②---|
口口口口 |----|
13
口口口口 |①---|
口①口口 |----|
口口口② |②---|
口口口② |----|
14
口口口口 |①---|
口口①口 |----|
②口口口 |②---|
②口口口 |----|
15
口口②③ |①---|
口口口口 |----|
口①①口 |②---|
口口口口 |③---|
16
③②口口 |①---|
口口口口 |----|
口①①口 |②---|
口口口口 |③---|
17
口口口口 |①---|
口①①口 |----|
口口口口 |②---|
口口②③ |③---|
18
口口口口 |①---|
口①①口 |----|
口口口口 |②---|
③②口口 |③---|
19
口口口口 |①---|
口①①口 |----|
口口口口 |----|
口口口口 |----|
20
口口口口 |--①-|
口③口① |--②-|
④口②口 |--③-|
口口口口 |--④-|
21
口口口口 |①---|
口口口口 |----|
口口口口 |----|
口①①口 |----|
22
口口口口 |①---|
口口口口 |②---|
④③②① |③---|
口口口口 |④---|
23
口口口口 |①---|
口①①口 |----|
口口口口 |----|
口口口口 |----|
24
口口口口 |--①-|
①口③口 |--②-|
口②口④ |--③-|
口口口口 |--④-|
25
口口口口 |①---|
口口口口 |----|
口口口口 |----|
口①①口 |----|
26
口口口口 |①---|
④口口④ |②---|
①②③口 |③---|
口口口口 |④---|
27
口口①口 |①---|
口口②口 |----|
口口口口 |②---|
口口口口 |----|
28
口口口口 |①---|
口口口口 |----|
口口①口 |②---|
口口②口 |----|
29
口口口口 |①---|
口口口口 |----|
口②口口 |②---|
口①口口 |----|
30
口②口口 |①---|
口①口口 |----|
口口口口 |②---|
口口口口 |----|
31
口口口口 |①---|
口③口① |②---|
④口②口 |③---|
口口口口 |④---|
32
口口口口 |①---|
①口③口 |②---|
口②口④ |③---|
口口口口 |④---|
33
口口④口 |①---|
口③口口 |②---|
口口②口 |③---|
口①口口 |④---|
34
口①口口 |①---|
口口②口 |②---|
口③③口 |③---|
口口口口 |----|
35
口口口④ |①---|
口口口③ |②---|
口口口② |③---|
①口口① |④---|
36
口①①口 |①---|
口②口口 |②---|
口③口口 |③---|
口④口口 |④---|
37
④口口口 |①---|
③口口口 |②---|
②口口口 |③---|
①口口① |④---|
38
口①①口 |①---|
口口②口 |②---|
口口③口 |③---|
口口④口 |④---|
39
口口口口 |①---|
口③④口 |②---|
口②②口 |③---|
①口口① |④---|
40
④③②① |①---|
口口口口 |②---|
口口口口 |③---|
口口口口 |④---|
41
口口口口 |①---|
口②①口 |②---|
口④③口 |③---|
口口口口 |④---|
42
口口口口 |①---|
口口口口 |②---|
口口口口 |③---|
①②③④ |④---|
43
口口口口 |①---|
口口口口 |----|
口①①口 |----|
口口口口 |----|
44
②口口② |①---|
口①①口 |----|
口口口口 |----|
口口口口 |②---|
45
口①④④ |①---|
口口口口 |②---|
口②口③ |③---|
口口口口 |④---|
46
口口口口 |①---|
口口②① |②---|
④③口口 |③---|
口口口口 |④---|
47
口④口口 |①---|
口口③口 |②---|
口②口口 |③---|
口口①口 |④---|
48
口口口口 |①---|
口②口① |②---|
口④口③ |③---|
口口口口 |④---|
49
④④①口 |①---|
口口口口 |②---|
③口②口 |③---|
口口口口 |④---|
50
口口口口 |①---|
①②口口 |②---|
口口③④ |③---|
口口口口 |④---|
51
口口④口 |①---|
口③口口 |②---|
口口②口 |③---|
口①口口 |④---|
52
口口口口 |①---|
①口②口 |②---|
口口口口
口口口口

③口口③
④口口④
口口口口 |③---|
口口口口 |④---|
53
口①④④ |①---|
口口口口 |②---|
口②口③ |③---|
口口口口 |④---|
54
口口口口 |①---|
口口②① |②---|
④③口口 |③---|
口口口口 |④---|
55
口④口口 |①---|
口口③口 |②---|
口②口口 |③---|
口口①口 |④---|
56
口口口口 |①---|
口②口① |②---|
口④口③ |③---|
口口口口 |④---|
57
④④①口 |①---|
口口口口 |②---|
③口②口 |③---|
口口口口 |④---|
58
口口口口 |①---|
①②口口 |②---|
口口③④ |③---|
口口口口 |④---|
59
口口④口 |①---|
口③口口 |②---|
口口②口 |③---|
口①口口 |④---|
60
口口口口 |①---|
①口②口 |②---|
口口口口
口口口口

③口口③
④口口④
口口口口 |③---|
口口口口 |④---|
61
口口口② |①---|
口口口② |----|
口①口口 |②---|
口口口口 |----|
62
②口口口 |①---|
②口口口 |----|
口口①口 |②---|
口口口口 |----|
63
口口口口 |①---|
口①口口 |----|
口口口② |②---|
口口口② |----|
64
口口口口 |①---|
口口①口 |----|
口口口口
口口口口

口口口口
口③③口
②③③口 |②---|
②口口口 |③---|

不確定度: 0

最終更新:2014年08月02日 02:45