ホーンテッド★メイドランチ
日向美ビタースイーツ♪
ADVANCED
Level: 6
BPM: 188
Notes: 470
1
口口口口 |----|
口口口口 |----|
口口口口 |----|
口口口口 |----|
2
口口口口 |①---|
口口口口 |②---|
口口口口 |③---|
①②③④ |④---|
3
口口口口 |①---|
口口口口 |②---|
①②③④ |③---|
口口口口 |④---|
4
口口口口 |①---|
①②③④ |②---|
口口口口 |③---|
口口口口 |④---|
5
①②③④ |①---|
口口口口 |②---|
口口口口 |③---|
口口口口 |④---|
6
口口口口 |①---|
口口口口 |②---|
口口口口 |③---|
④③②① |④---|
7
口口口口 |①---|
口口口口 |②---|
④③②① |③---|
口口口口 |④---|
8
口口口口 |①---|
④③②① |②---|
口口口口 |③---|
口口口口 |④---|
9
④③②① |①---|
口口口口 |②---|
口口口口 |③---|
口口口口 |④---|
10
口口口口 |①---|
口口口口 |----|
口①①口
口口口口
11
口口口② |①---|
口口口④ |②---|
③口口口 |③---|
①口口口 |④---|
12
③口口口 |①---|
①口口口 |②---|
口口口② |③---|
口口口④ |④---|
13
口①口口 |①---|
口③口口 |②---|
口口④口 |③---|
口口②口 |④---|
14
口口口口 |①---|
②口口① |----|
①口口② |②---|
口口口口 |----|
15
口口口② |①---|
口口口④ |②---|
③口口口 |③---|
①口口口 |④---|
16
③口口口 |①---|
①口口口 |②---|
口口口② |③---|
口口口④ |④---|
17
口①口口 |①---|
口③口口 |②---|
口口④口 |③---|
口口②口 |④---|
18
口口口口 |①---|
②口口① |----|
①口口② |②---|
口口口口 |----|
19
口口⑦口 |--①-|
口⑥①口 |②-③-|
口②⑤口 |④-⑤-|
口④③口 |⑥-⑦-|
20
①口口口 |①-②-|
口口口② |③-④-|
③口口口 |⑤---|
⑤口口④ |----|
21
口⑦口口 |--①-|
口①⑥口 |②-③-|
口⑤②口 |④-⑤-|
口③④口 |⑥-⑦-|
22
口口口① |①-②-|
②口口口 |③-④-|
口口口③ |⑤---|
④口口⑤ |----|
23
口口⑦口 |--①-|
口⑥①口 |②-③-|
口②⑤口 |④-⑤-|
口④③口 |⑥-⑦-|
24
①口口口 |①-②-|
口口口② |③-④-|
③口口口 |⑤---|
⑤口口④ |----|
25
口口口口 |①---|
口①①口 |----|
口口口口 |----|
口口口口 |----|
26
口口口口 |①---|
口口口口 |----|
口①①口 |----|
②口②口 |②---|
27
口①口① |①---|
②口②口 |----|
口口口口 |②---|
口口口口 |----|
28
口口口口 |①---|
口口口口 |----|
口①口① |----|
口口口口 |----|
29
口口口口 |①---|
口①口① |----|
②口②口 |②---|
口口口口 |----|
30
口口口口 |①---|
口口口口 |--②-|
口②③口 |③---|
口①口① |----|
31
口口口口 |①---|
①口①口 |----|
口②口② |②---|
口口口口 |----|
32
口口口口 |①---|
口口口口 |----|
口口口口 |----|
①口①口 |----|
33
口口口口 |①---|
口①口① |----|
②口②口 |②---|
口口口口 |----|
34
口口口口 |①---|
口口口口 |--②-|
口②③口 |③---|
口①口① |----|
35
口口⑦口 |--①-|
口⑥①口 |②-③-|
口②⑤口 |④-⑤-|
口④③口 |⑥-⑦-|
36
①口口口 |①-②-|
口口口② |③-④-|
③口口口 |⑤---|
⑤口口④ |----|
37
口⑦口口 |--①-|
口①⑥口 |②-③-|
口⑤②口 |④-⑤-|
口③④口 |⑥-⑦-|
38
口口口① |①-②-|
②口口口 |③-④-|
口口口③ |⑤---|
④口口⑤ |----|
39
口口⑦口 |--①-|
口⑥①口 |②-③-|
口②⑤口 |④-⑤-|
口④③口 |⑥-⑦-|
40
①口口口 |①-②-|
口口口② |③-④-|
③口口口 |⑤---|
⑤口口④ |----|
41
口口口口 |①---|
口①①口 |----|
口口口口 |----|
口口口口 |----|
42
口口口口 |①---|
口口口口 |----|
口①①口 |----|
②口②口 |②---|
43
口①口① |①---|
②口②口 |----|
口口口口 |②---|
口口口口 |----|
44
口口口口 |①---|
口口口口 |----|
口①口① |----|
口口口口 |----|
45
口口口口 |①---|
口①口① |----|
②口②口 |②---|
口口口口 |----|
46
口口口口 |①---|
口口口口 |--②-|
口②③口 |③---|
口①口① |----|
47
口口口口 |①---|
①口①口 |----|
口②口② |②---|
口口口口 |----|
48
口口口口 |①---|
口口口口 |----|
口口口口 |----|
①口①口 |----|
49
口口口口 |①---|
口①口① |----|
②口②口 |②---|
口口口口 |----|
50
口口口口 |①---|
口口口口 |--②-|
口②③口 |③---|
口①口① |----|
51
①口④④ |--①-|
⑤⑤口② |②-③-|
③口⑥⑥ |④-⑤-|
⑦⑦口口 |⑥-⑦-|
52
口②口口 |①---|
口④①③ |②---|
③①④口 |③---|
口口②口 |④---|
53
④④口① |--①-|
②口⑤⑤ |②-③-|
⑥⑥口③ |④-⑤-|
口口⑦⑦ |⑥-⑦-|
54
口口②口 |①---|
③①④口 |②---|
口④①③ |③---|
口②口口 |④---|
55
①口④④ |--①-|
⑤⑤口② |②-③-|
③口⑥⑥ |④-⑤-|
⑦⑦口口 |⑥-⑦-|
56
②①③③ |①---|
③③①② |②---|
②①④口 |③---|
口口①② |--④-|
57
口③口口 |①---|
口口④② |--②-|
口⑤口口 |③-④-|
口①⑥口 |⑤-⑥-|
58
③③口⑤ |①-②-|
⑤口④④ |--③-|
口口②② |④---|
①①口口 |⑤---|
59
口口①口 |①-②-|
口②口⑤ |③-④-|
⑥口③口 |⑤-⑥-|
口④口⑦ |⑦---|
60
口口口口 |①-②-|
③口口口 |③-④-|
口①口④ |⑤---|
⑤口②口 |----|
61
口口口① |①-②-|
②口⑤口 |③-④-|
口⑥口③ |⑤-⑥-|
④口⑦口 |⑦---|
62
口口口口 |①-②-|
口③口口 |③-④-|
①口④口 |⑤---|
口⑤口② |----|
63
口口①口 |①-②-|
口②口⑤ |③-④-|
⑥口③口 |⑤-⑥-|
口④口⑦ |⑦---|
64
口口口口 |①-②-|
③口口口 |③-④-|
口①口④ |⑤---|
⑤口②口 |----|
65
口口口① |①-②-|
②口⑤口 |③-④-|
口⑥口③ |⑤-⑥-|
④口⑦口 |⑦---|
66
口口口口 |①-②-|
口③口口 |③-④-|
①口④口 |⑤---|
口⑤口② |----|
67
②口口口 |①---|
口口④③ |②---|
⑤口口口 |③-④-|
①口口口 |--⑤-|
68
②口口口 |①---|
⑤口口口 |②---|
口①④③ |③-④-|
口口口口 |--⑤-|
69
②口口口 |①---|
口①口口 |②---|
⑤口④③ |③-④-|
口口口口 |--⑤-|
70
口口口口 |①---|
⑤口④③ |②---|
口①口口 |③-④-|
②口口口 |--⑤-|
71
口口口口 |①---|
口①口口 |----|
口口口口 |----|
口口口口 |----|
72
口口口口 |①---|
口口口口 |----|
口①①口 |----|
口口口口 |----|
73
口口口口 |①---|
口口口口 |----|
口口口口 |----|
口①①口 |----|
74
口口口口 |①---|
口口口口 |----|
①口口① |----|
口口口口 |----|
75
口口口口 |①---|
口③②① |②---|
口口口口 |③---|
④口④口 |④---|
76
口①口① |①---|
②口②口 |----|
口口口口 |②---|
口口口口 |----|
77
口口口口 |①---|
口口口口 |----|
口①口① |----|
口口口口 |----|
78
口口口口 |①---|
口①口① |----|
②口②口 |②---|
口口口口 |----|
79
口口口口 |①---|
口口口口 |--②-|
口②③口 |③---|
口①口① |----|
80
口口口口 |①---|
①口①口 |----|
口②口② |②---|
口口口口 |----|
81
口口口口 |①---|
口口口口 |----|
口口口口 |----|
①口①口 |----|
82
口口口口 |①---|
口①口① |----|
②口②口 |②---|
口口口口 |----|
83
口口口口 |①---|
口口口口 |--②-|
口②③口 |③---|
口①口① |----|
84
①口④④ |--①-|
⑤⑤口② |②-③-|
③口⑥⑥ |④-⑤-|
⑦⑦口口 |⑥-⑦-|
85
口②口口 |①---|
口④①③ |②---|
③①④口 |③---|
口口②口 |④---|
86
④④口① |--①-|
②口⑤⑤ |②-③-|
⑥⑥口③ |④-⑤-|
口口⑦⑦ |⑥-⑦-|
87
口口②口 |①---|
③①④口 |②---|
口④①③ |③---|
口②口口 |④---|
88
①口④④ |--①-|
⑤⑤口② |②-③-|
③口⑥⑥ |④-⑤-|
⑦⑦口口 |⑥-⑦-|
89
②①③③ |①---|
③③①② |②---|
②①④口 |③---|
口口①② |--④-|
90
口③口口 |①---|
口口④② |--②-|
口⑤口口 |③-④-|
口①⑥口 |⑤-⑥-|
91
③③口⑤ |①-②-|
口口④④ |--③-|
⑤口②② |④---|
①①口口 |⑤---|
不確定度: 0