V.I.P


ADVANCED

Level: 7
BPM: 185
Notes: 318

1
口口口口 |----|
口口口口 |----|
口口口口 |----|
口口口口 |----|
2
⑦口口⑦ |--①-|
口口口口 |②-③-|
①③⑤口 |④-⑤-|
口②④⑥ |⑥-⑦-|
3
口口口口 |--①-|
口①口口 |----|
②口②口 |②-③-|
口③口口 |----|
4
口口③口 |①---|
口②口口 |----|
口口口口 |----|
①口①口 |②-③-|
5
口口口口 |①---|
口口口口 |②---|
口①②① |③---|
口③口③ |----|
6
④口⑤口 |①---|
①口口① |②---|
口③口口 |③---|
口口②口 |④-⑤-|
7
口⑥口口 |--①-|
口①②③ |②-③-|
④口⑤口 |--④-|
口口口口 |⑤-⑥-|
8
口④口③ |--①-|
口口①口 |--②-|
口口口口 |----|
口②口口 |③-④-|
9
口口⑥口 |--①-|
③②①口 |②-③-|
口⑤口④ |--④-|
口口口口 |⑤-⑥-|
10
口口口口 |--①-|
口①口口 |--②-|
口口②口 |③---|
口口③口 |----|
11
口口口④ |①---|
口口口③ |②---|
口口口② |③---|
①①口① |④---|
12
①②③⑥ |①-②-|
⑦⑤⑦口 |③-④-|
口⑦口口 |⑤---|
口④口口 |⑥-⑦-|
13
口口口口 |----|
口口口口 |----|
口口①口 |----|
口①口① |---①|
14
口口口口 |----|
口口口口 |----|
口口口口 |----|
口口口口 |----|
15
口口口口 |--①-|
口②④口 |②---|
①⑤⑤③ |③-④-|
口口口口 |--⑤-|
16
口①①口 |--①-|
口③③口 |--②-|
口口口口 |--③-|
口②②口 |----|
17
①口口口 |----|
口口口口 |①---|
口②口③ |②-③-|
口口④口 |--④-|
18
口口口口 |①-②-|
①②④③ |③-④-|
⑤⑥⑧⑦ |⑤-⑥-|
口口口口 |⑦-⑧-|
19
①口口口 |----|
口口口口 |①---|
口②口③ |②-③-|
口口④口 |--④-|
20
口口口口 |①-②-|
①②④③ |③-④-|
⑤⑥⑧⑦ |⑤-⑥-|
口口口口 |⑦-⑧-|
21
口口口口 |①---|
口①口口 |--②-|
口口口口 |----|
口口②② |----|
22
口③口③ |----|
口②口② |①---|
口①口① |②---|
口口口口 |③---|
23
口口①口 |①---|
口口口口 |----|
口③④口 |--②-|
②口口口 |③-④-|
24
口口口口 |①---|
口口口口 |----|
口口口口 |----|
口口口① |----|
25
口④口口 |----|
③口②口 |①---|
口口口口 |②-③-|
口口口① |--④-|
26
口⑧口⑦ |①-②-|
⑤口⑥口 |③-④-|
口④口③ |⑤-⑥-|
①口②口 |⑦-⑧-|
27
口④口口 |----|
③口②口 |①---|
口口口口 |②-③-|
口口口① |--④-|
28
口⑧口⑦ |①-②-|
⑤口⑥口 |③-④-|
口④口③ |⑤-⑥-|
①口②口 |⑦-⑧-|
29
口口口口 |①---|
口口口① |--②-|
②②口口 |----|
口口口口 |----|
30
口口口口 |----|
①口①口 |①---|
②口②口 |②---|
③口③口 |③---|
31
④④口口 |①---|
口口口② |----|
口口③口 |--②-|
口①口口 |③-④-|
32
口口口口 |----|
口口口口 |----|
口口口口 |----|
口口口口 |----|
33
口口口口 |----|
口②口⑤ |①---|
口口③口 |②-③-|
①④口口 |④-⑤-|
34
口口④口 |--①-|
②口口口 |--②-|
口①③口 |--③-|
口口口口 |--④-|
35
④口口③ |----|
口①口口 |①-②-|
③②口④ |--③-|
口口口口 |--④-|
36
口口口口 |----|
口口口口 |----|
口口口口 |----|
口口口口 |----|
37
口⑤口口 |----|
口口④口 |①-②-|
①口③口 |③-④-|
口②口口 |--⑤-|
38
③口④口 |--①-|
③口④① |--②-|
口②口口 |--③-|
口②口口 |--④-|
39
①口口口 |----|
口口口口 |----|
①口口口 |----|
口口口口 |--①-|
40
口①口口 |----|
口口②③ |①---|
口①口口 |②---|
口口②③ |③---|
41
口口口口 |----|
口②口⑤ |①---|
口口③口 |②-③-|
①④口口 |④-⑤-|
42
口③④④ |--①-|
②口口口 |--②-|
口①口口 |--③-|
口口口口 |--④-|
43
③③口口 |--①-|
口口口口 |②---|
口①①口 |----|
口②②口 |--③-|
44
口口口口 |--①-|
口口口口 |②---|
口①①口 |----|
口②②口 |----|
45
⑦口口⑦ |--①-|
口口⑦口 |②-③-|
①③⑤口 |④-⑤-|
口②④⑥ |⑥-⑦-|
46
口口口口 |--①-|
口①口④ |----|
②④②口 |②-③-|
口③④口 |--④-|
47
口口②口 |----|
口①口口 |----|
口口口口 |----|
口口口口 |①-②-|
48
口⑤口口 |①---|
⑤口口⑤ |②---|
口①②① |③-④-|
口③④③ |--⑤-|
49
口口口口 |----|
口口②口 |----|
①口口口 |----|
口口口口 |①-②-|
50
口口⑤口 |----|
口①口⑤ |①-②-|
口②④口 |--③-|
口口③口 |④-⑤-|
51
口口口口 |--①-|
口③口口 |----|
①口口② |----|
口①口口 |②-③-|
52
口⑤⑤口 |----|
口口①口 |①-②-|
口④②口 |--③-|
口③口口 |④-⑤-|
53
⑥⑥⑥口 |--①-|
口口②口 |--②-|
①口④口 |③-④-|
①③口⑤ |⑤-⑥-|
54
口口口口 |--①-|
口①口口 |----|
口②②口 |②-③-|
口③口口 |----|
55
口口③口 |①---|
口②口口 |----|
口口口口 |----|
口口口① |②-③-|
56
口口口口 |①---|
口口口口 |②---|
口①②① |③---|
口③口③ |----|
57
②口③口 |①---|
①口①口 |----|
口口口口 |----|
口口口口 |②-③-|
58
口⑥口口 |--①-|
口①②③ |②-③-|
④口⑤口 |--④-|
口口口口 |⑤-⑥-|
59
口④①③ |--①-|
口口①口 |--②-|
口②口口 |----|
口②口口 |③-④-|
60
口口⑥口 |--①-|
③②①口 |②-③-|
口⑤口④ |--④-|
口口口口 |⑤-⑥-|
61
口口口② |--①-|
口①口口 |--②-|
③口③口 |③---|
口口口口 |----|
62
口口口口 |①---|
②③④口 |②---|
口口口口 |③---|
①①口① |④---|
63
②⑥②⑥ |①---|
⑤口⑥口 |②-③-|
口①③① |④---|
口④口口 |⑤-⑥-|
64
口口口口 |----|
口口口口 |----|
口①口口 |----|
①口①口 |--①-|

不確定度: 0

最終更新:2014年08月01日 23:12