Take Your Way
livetune adding Fukase(from SEKAI NO OWARI)
ADVANCED
Level: 5
BPM: 134
Notes: 286
1
口口口口 |----|
口口口口 |----|
口口口口 |----|
口口口口 |----|
2
口口口口 |①---|
口口④口 |--②-|
口口③口 |----|
口②口① |③-④-|
3
①口②口 |①---|
口③口口 |--②-|
口④口口 |----|
口口口口 |③-④-|
4
口口口口 |①---|
口口④口 |--②-|
口口③口 |----|
口②口① |③-④-|
5
①口②口 |①---|
口③口口 |--②-|
口④口口 |----|
口口口口 |③-④-|
6
口口口口 |①---|
口③口口 |--②-|
口口②口 |----|
口①①口 |③---|
7
口①口口 |①---|
口口口③ |----|
口口口② |②---|
口口口口 |③---|
8
口口口① |①---|
口②②口 |----|
口口口口 |②---|
口口口口 |----|
9
口口口口 |①---|
④口口口 |②---|
③①①口 |③---|
②口口口 |④---|
10
①口②口 |①---|
口口③口 |②---|
口口④口 |③---|
口口口口 |④---|
11
口②口口 |①--②|
口③口口 |--③-|
口口④⑤ |④---|
口①口口 |⑤---|
12
口口口① |①---|
口②②口 |--②-|
口口口口 |----|
口口口口 |----|
13
⑥⑤口⑥ |①---|
口口④口 |--②-|
①③口① |③-④-|
口口②口 |⑤-⑥-|
14
口口口③ |----|
口口口② |----|
口口口① |--①-|
口口口口 |②-③-|
15
口口口口 |----|
⑤口口口 |--①-|
③口④口 |②-③-|
①口②口 |④-⑤-|
16
①④②③ |----|
口口口⑤ |①-②-|
口口口口 |--③-|
口口口口 |④-⑤-|
17
口口口口 |①---|
口①口口 |②-③-|
口口口口
口③口②
口口口口
口⑦口⑥
口⑤口④ |④-⑤-|
口口口口 |⑥-⑦-|
18
①②③口 |----|
口④④口 |--①-|
口口口口 |②-③-|
口口口口 |--④-|
19
口口口口 |----|
口口⑤口 |--①-|
口④③口 |②-③-|
口②①口 |④-⑤-|
20
口②①③ |--①-|
⑥口口⑤ |②-③-|
口④④口 |--④-|
口口口口 |⑤-⑥-|
21
②②①① |--①-|
口口⑤口 |②---|
口④口口 |--③-|
口口③口 |④-⑤-|
22
②①口② |①---|
口⑤口口 |②---|
口口④口 |③-④-|
口③口口 |⑤---|
23
①⑥⑤① |①---|
口④口口 |②---|
口口③口 |③-④-|
口②②口 |⑤-⑥-|
24
口口口口 |①---|
①口口① |②---|
口口口口
口②②口
口③③口
④口口④
口口口口 |③---|
口口口口 |④---|
25
口口口口 |----|
口口口口 |①---|
①②③口 |②---|
口口口口 |③---|
26
口口口③ |①--②|
口口口② |--③-|
口④④口 |----|
口口口① |④---|
27
③口口口 |①--②|
②口⑥口 |--③-|
口⑤口口 |--④-|
①口④口 |⑤-⑥-|
28
①口口① |①---|
口口口口 |②---|
口口口口
口②②口
④④④④
口口口口
口③③口 |③---|
口口口口 |④---|
29
口口口③ |----|
口②口③ |--①-|
口口口口 |②---|
口①口口 |③---|
30
口口①口 |--①-|
口口②口 |②-③-|
口口③口 |④---|
⑥⑤④口 |⑤-⑥-|
31
口⑥⑥口 |①-②-|
①②⑤口 |③-④-|
口③④口 |⑤---|
口口口口 |⑥---|
32
口④口⑤ |--①-|
口③口⑤ |②-③-|
口②口口 |④---|
口①⑥口 |⑤-⑥-|
33
口口口口 |①-②-|
口③④口 |③-④-|
口②口口
口①口口
口⑤⑤口
口口口口
口⑥⑥口 |⑤---|
口口口口 |⑥---|
34
④口口⑤ |①---|
口①①口 |--②-|
③口口口 |③--④|
②口口口 |--⑤-|
35
口①④口 |①--②|
口口③口 |--③-|
口口⑤口 |④---|
口口②口 |⑤---|
36
口②口② |①---|
口口①口 |②---|
口③口口 |----|
口口口口 |③---|
37
②口②口 |①---|
口①口③ |②---|
口口口④ |③-④-|
口口口⑤ |⑤---|
38
口①口口 |--①-|
口②口口 |②-③-|
口③口口 |④---|
口④⑤⑥ |⑤-⑥-|
39
口⑥⑥口 |①-②-|
口⑤②① |③-④-|
口④③口 |⑤---|
口口口口 |⑥---|
40
⑤口④口 |--①-|
⑤口③口 |②-③-|
口口②口 |④---|
口⑥①口 |⑤-⑥-|
41
口口口口 |①-②-|
口④③口 |③-④-|
口口②口
口口①口
口⑤⑤口
口口口口
口⑥⑥口 |⑤---|
口口口口 |⑥---|
42
口口口口 |①---|
口①①⑤ |--②-|
口口口口 |③--④|
②③口④ |--⑤-|
43
口口口① |①--②|
口②②口 |--③-|
口口⑥口 |④--⑤|
③④口⑤ |--⑥-|
44
②口口口 |①---|
口口口口 |②---|
口①口口 |----|
口③口口 |③---|
45
口口口② |①---|
口口口口 |②---|
口③③口 |----|
口口①口 |③---|
46
②口口② |①---|
口③口口 |②---|
口口口口 |----|
口①①口 |--③-|
47
口⑤⑥口 |①-②-|
口口口口 |③-④-|
口④①口 |--⑤-|
口②③口 |⑥---|
48
口口口口 |①---|
口③口口 |--②-|
口口②口 |----|
口①①口 |③---|
49
口①口口 |①---|
口口口③ |----|
口口口② |②---|
口口口口 |③---|
50
口口口① |①---|
口②②口 |----|
口口口口 |②---|
口口口口 |----|
51
口口口口 |①---|
④口口口 |②---|
③①①口 |③---|
②口口口 |④---|
52
①口②口 |①---|
口口③口 |②---|
口口④口 |③---|
口口口口 |④---|
53
口②口口 |①--②|
口③口口 |--③-|
口口④⑤ |④---|
口①口口 |⑤---|
54
口口口① |①---|
口②②口 |--②-|
口口口口 |----|
口口口口 |----|
55
口口口③ |①---|
口口口口 |----|
①口口① |②-③-|
口口口② |----|
56
口口口口 |①---|
口①①口 |----|
口口口口 |----|
口口口口 |----|
不確定度: 0