STERLING SILVER
TAG
EXTREME
Level: 10
BPM: 175
Notes: 867
1
口口口口 |----|
口口口口 |----|
口口口口 |----|
口口口口 |----|
2
口口①口 |①-②-|
②口口口 |③-④-|
口口③口
④口口口
⑦口⑩⑤
口⑨口⑧
口口口⑥ |⑤-⑥⑦|
口口口口 |-⑧⑨⑩|
3
⑦口⑩⑤ |①-②-|
口⑨②⑧ |③-④-|
③口口⑥ |⑤-⑥⑦|
口①④口 |-⑧⑨⑩|
4
⑦⑨口⑤ |①-②-|
③口②⑩ |③-④-|
口口⑧⑥ |⑤-⑥⑦|
口①④口 |-⑧⑨⑩|
5
⑥⑩⑩⑦ |①-②③|
口②③口 |-④⑤-|
①口口口 |⑥⑦-⑧|
⑧④⑤⑨ |⑨-⑩-|
6
⑧口口⑨ |①-②-|
③④⑤⑥ |③④⑤⑥|
口①①② |⑦--⑧|
⑧⑦⑦⑨ |--⑨-|
7
⑧口口⑨ |①-②-|
③④⑤⑥ |③④⑤⑥|
口①①② |⑦--⑧|
⑧⑦⑦⑨ |--⑨-|
8
口①①口 |①-②③|
⑤②口口 |④-⑤⑥|
口④③⑥
口口口口
⑧⑪口口
口口⑨⑫
口口口口 |⑦-⑧⑨|
⑦⑩口口 |⑩-⑪⑫|
9
口⑥②② |①--②|
③③⑥口 |--③-|
①口⑤⑤ |-④⑤-|
④⑦⑧口 |⑥-⑦⑧|
10
口口口口 |①---|
口口口口 |----|
口口口口 |----|
口口口① |----|
11
⑤①⑥③ |①-②③|
口⑦⑫⑧ |-④⑤-|
①⑨口⑥ |⑥⑦-⑧|
④⑪⑩② |⑨⑩⑪⑫|
12
⑤①口③ |①-②③|
②⑤⑪⑦ |-④⑤-|
①⑧③④ |⑥⑦--|
⑥⑩⑨口 |⑧⑨⑩⑪|
13
⑤①口③ |①-②③|
口口口口 |-④⑤-|
①口②口
口口口④
口⑨⑦口
⑧⑥口⑨
口口口⑥ |⑥-⑦-|
⑦口⑧口 |⑧-⑨-|
14
口口口③ |①--②|
口口②口 |--③-|
①②①口
口口口③
④⑦⑥口
口⑤口⑧
⑨口口口 |④-⑤⑥|
④口⑩口 |⑦⑧⑨⑩|
15
口口口⑥ |①-②③|
④口⑤口 |④⑤⑥-|
口①③②
口④口口
⑩⑪⑧口
口⑦口口
⑬⑫口口 |⑦⑧-⑨|
口口口⑨ |⑩⑪⑫⑬|
16
⑩⑪⑥⑧ |①②③④|
口⑦⑨⑥ |⑤-⑥-|
口口②① |⑦⑧-⑨|
③④⑤口 |⑩-⑪-|
17
⑦口口⑥ |①-②③|
①⑤⑧③ |-④⑤-|
②⑤④口 |⑥-⑦-|
⑨①③口 |⑧-⑨-|
18
口②②口 |①--②|
③⑧⑦③ |--③-|
⑥③③口 |-④⑤-|
口④⑤① |⑥-⑦⑧|
19
口口口② |①-②-|
⑥口口③ |③-④-|
⑦⑦口④ |⑤-⑥-|
①口口⑤ |--⑦-|
20
①①口③ |--①-|
口口口口 |----|
口口④口 |--②-|
口②口口 |③-④-|
21
①口口口 |①-②-|
②⑤口口 |③-④-|
③口⑦⑦ |⑤-⑥-|
④口口⑥ |--⑦-|
22
口口①① |--①-|
口口③口 |----|
口口口口 |--②-|
口口口② |③---|
23
①口口⑤ |①-②-|
②口口口 |③-④-|
③口⑥口 |⑤-⑥-|
④口⑦⑦ |--⑦-|
24
③口口口 |--①-|
口口①① |----|
口④②口 |--②-|
口口口口 |③-④-|
25
口⑦⑦① |①-②-|
口口⑥② |③-④-|
口口口③ |⑤-⑥-|
⑤口口④ |--⑦-|
26
口⑧口① |--①②|
②⑨⑦④ |③-④⑤|
⑤⑩⑦③ |⑥-⑦-|
口⑪口⑥ |⑧⑨⑩⑪|
27
③口口② |①-②-|
⑥口⑦③ |③-④-|
⑧⑧口④ |⑤-⑥-|
①口口⑤ |⑦-⑧-|
28
②②④⑥ |①-②-|
口①口口 |③---|
口口⑦口 |④-⑤-|
③⑤口口 |⑥-⑦-|
29
①口口口 |①-②-|
②⑤⑤① |③-④-|
③⑦⑧⑧ |⑤-⑥-|
④口③⑥ |⑦-⑧-|
30
①口②② |①-②-|
口④⑥口 |③---|
③⑥口口 |④-⑤-|
口口口⑤ |⑥---|
31
①⑤口⑤ |①-②-|
②⑦口① |③-④-|
③口⑥③ |⑤-⑥-|
④口⑧⑧ |⑦-⑧-|
32
口口口口 |①-②-|
③口②② |③---|
口①口口
口口口口
⑥口⑥口
口口口口
④⑦⑤口 |④-⑤-|
口口口口 |⑥-⑦-|
33
⑦口口① |①-②-|
③①⑥② |③-④-|
口口⑧③ |⑤-⑥-|
⑤口⑤④ |⑦-⑧-|
34
口口⑤口 |①-②③|
⑥①口② |④-⑤⑥|
③口口口
口口口④
口⑩口⑨
口⑫⑪口
口口⑬⑦ |⑦⑧-⑨|
⑧口口口 |⑩⑪⑫⑬|
35
①口③口 |①-②-|
⑤口⑦口 |③-④-|
②口⑧口 |⑤-⑥-|
⑥口④口 |⑦-⑧-|
36
⑥口⑧口 |①-②-|
口②口④ |③-④-|
⑤口口口 |⑤-⑥-|
口①⑦③ |⑦-⑧-|
37
⑤①口口 |①-②-|
口口⑦③ |③-④-|
口②口④ |⑤-⑥-|
⑥口⑧口 |⑦-⑧-|
38
口⑦口③ |①-②-|
口②口⑥ |③-④-|
口⑤⑤④ |⑤-⑥-|
口①口⑧ |⑦-⑧-|
39
①口③口 |①-②-|
⑤口⑦口 |③-④-|
②口⑧口 |⑤-⑥-|
⑥口④口 |⑦-⑧-|
40
⑥口⑧口 |①-②-|
口②口④ |③-④-|
⑤口口口 |⑤-⑥-|
口①⑦③ |⑦-⑧-|
41
⑤①口口 |①-②-|
口口⑦③ |③-④-|
口②口④ |⑤-⑥-|
⑥口⑧口 |⑦-⑧-|
42
⑥口⑦③ |①-②-|
口②口口 |③-④-|
⑤口口④ |⑤-⑥-|
口①⑧口 |⑦-⑧-|
43
口口口口 |①---|
口①①口 |----|
口①①口 |----|
口口口口 |----|
44
口口口口 |----|
口口口口 |----|
口口口口 |----|
口口口口 |----|
45
口⑥⑦① |①-②-|
②口③⑤ |③-④-|
④口①⑦ |⑤-⑥-|
⑧口⑤③ |⑦-⑧-|
46
口⑧口① |①②③④|
⑥②⑤⑨ |⑤⑥⑦⑧|
口口③口 |⑨---|
口④口⑦ |----|
47
口口⑤口 |①②③④|
⑦④口⑩ |⑤-⑥-|
②③口⑥ |⑦-⑧-|
①⑨⑧口 |⑨-⑩-|
48
④口②口 |①--②|
口口⑤口 |③-④-|
①③⑥口 |⑤-⑥-|
①口口⑦ |⑦---|
49
⑫③⑥⑨ |①②③-|
口口口口 |④⑤⑥-|
②⑤⑧⑪ |⑦⑧⑨-|
①④⑦⑩ |⑩⑪⑫-|
50
口口⑤口 |①②③④|
⑧④口⑦ |⑤-⑥-|
②③口口 |⑦-⑧-|
①口⑥⑨ |⑨---|
51
⑤口口④ |①--②|
口③口⑥ |③-④-|
口口②口 |⑤-⑥-|
①⑦口⑧ |⑦-⑧-|
52
口口口口 |①---|
口②⑤口 |--②③|
口⑥③口 |④---|
①口④口 |--⑤⑥|
53
⑤口④⑥ |①---|
③⑦口口 |②--③|
口口口口 |④-⑤-|
②①口② |⑥-⑦-|
54
口口口口 |①---|
口口④口 |②--③|
口③口① |④---|
口口②口 |----|
55
①⑨⑩② |①②③④|
⑬⑤⑥⑭ |⑤⑥⑦⑧|
③⑪⑫④ |⑨⑩⑪⑫|
⑮⑦⑧⑯ |⑬⑭⑮⑯|
56
③⑪⑫④ |①②③④|
⑮⑦⑧⑯ |⑤⑥⑦⑧|
①⑨⑩② |⑨⑩⑪⑫|
⑬⑤⑥⑭ |⑬⑭⑮⑯|
57
①⑨⑩② |①②③④|
⑬⑤⑥⑭ |⑤⑥⑦⑧|
③⑪⑫④ |⑨⑩⑪⑫|
⑮⑦⑧⑯ |⑬⑭⑮⑯|
58
③⑪⑫④ |①②③④|
⑮⑦⑧⑯ |⑤⑥⑦⑧|
①⑨⑩② |⑨⑩⑪⑫|
⑬⑤⑥⑭ |⑬⑭⑮⑯|
59
①⑧⑨② |①②③④|
口⑤口口 |⑤---|
③⑥⑦④ |⑥⑦⑧⑨|
⑩口口口 |⑩---|
60
①⑧⑨② |①②③④|
口⑤口口 |⑤---|
③⑥⑦④ |⑥⑦⑧⑨|
⑩口口口 |⑩---|
61
⑤口口口 |①②③④|
口⑦⑨④ |⑤-⑥-|
口⑥口③ |⑦-⑧-|
⑧①②口 |⑨---|
62
⑤口口口 |①②③④|
口⑦⑨④ |⑤-⑥-|
口⑥口③ |⑦-⑧-|
⑧①②口 |⑨---|
63
口口⑨口 |①②③④|
口⑦⑧④ |⑤---|
⑤⑥②③ |⑥⑦⑧⑨|
⑩口①口 |⑩---|
64
⑤⑨口口 |①②③④|
⑥⑦⑩④ |⑤⑥⑦⑧|
⑪⑧②③ |⑨⑩⑪⑫|
口⑬①⑫ |⑬---|
65
口口①① |①---|
口口口口 |②-③-|
口②口③
②口③口
口⑥⑦口
⑥口口⑦
⑤口④口 |④-⑤-|
口⑤口④ |⑥-⑦-|
66
①口口② |①②③④|
口③④口 |⑤⑥⑦⑧|
口⑤口⑥ |⑨---|
⑦⑨⑧口 |----|
67
口①①① |①-②-|
口③①口 |③-④⑤|
②口①口
口口⑤④
⑨⑩口口
口口口⑦
口口口口 |⑥-⑦-|
⑧⑥口口 |⑧-⑨⑩|
68
口口①③ |①-②③|
口④③⑧ |④-⑤-|
②⑧⑤⑥ |⑥-⑦-|
⑦⑨⑥⑤ |⑧-⑨-|
69
①①②口 |①-②-|
④⑤⑥⑧ |③-④⑤|
①口⑩⑨ |⑥-⑦-|
口口⑦③ |⑧-⑨⑩|
70
口口③③ |①-②③|
④口⑤口 |④-⑤-|
口①口口
②口口⑤
口⑧口口
口⑥口⑨
口⑩⑪口 |⑥-⑦-|
口⑥⑦口 |⑧⑨⑩⑪|
71
②⑦口口 |①-②-|
⑥⑤④口 |③-④⑤|
①口⑩⑨ |⑥-⑦-|
①⑧口③ |⑧-⑨⑩|
72
③口口⑧ |①-②③|
⑦⑤⑥④ |④-⑤-|
③①口⑧ |⑥-⑦-|
⑤⑨⑥② |⑧-⑨-|
73
口口③口 |①-②-|
口④⑤口 |③-④⑤|
②口①口
口口口①
口口口口
⑦口口⑥
口口⑩⑨ |⑥-⑦-|
口口⑧口 |⑧-⑨⑩|
74
②③④口 |①-②③|
口⑥⑤口 |④-⑤⑥|
口①口口
口口口口
口口口口
⑦口口口
⑧⑩口口 |⑦-⑧-|
口⑨⑨口 |⑨-⑩-|
75
口⑤⑤① |①②③④|
⑧⑦⑥② |⑤-⑥⑦|
⑪⑫口③ |⑧-⑨-|
⑩口⑨④ |⑩-⑪⑫|
76
②口③③ |①-②③|
口④⑤⑧ |④-⑤-|
口⑧①⑥ |⑥-⑦-|
⑦⑨⑥⑤ |⑧-⑨-|
77
①①②口 |①-②-|
④⑤⑥⑧ |③-④⑤|
①口⑩⑨ |⑥-⑦-|
口口⑦③ |⑧-⑨⑩|
78
口口③③ |①-②③|
④口⑤口 |④-⑤-|
口①口口
②口口⑤
口⑧口口
口⑥口⑨
口⑩⑪口 |⑥-⑦-|
口⑥⑦口 |⑧⑨⑩⑪|
79
②⑦口口 |①-②-|
⑥⑤④口 |③-④⑤|
①口⑩⑨ |⑥-⑦-|
①⑧口③ |⑧-⑨⑩|
80
③口⑥口 |①-②③|
⑦⑤⑥④ |④-⑤-|
③①⑧⑧ |⑥-⑦-|
⑤⑨口② |⑧-⑨-|
81
①④口⑥ |①-②-|
口⑤⑩⑦ |③-④⑤|
②⑥⑨口 |⑥-⑦-|
口⑧③① |⑧-⑨⑩|
82
②口①⑥ |①--②③④|
③⑪⑫⑦ |⑤--⑥⑦⑧|
④⑩口⑧ |⑨-⑩-|
⑤⑬⑭⑨ |⑪⑫⑬⑭|
83
②①②口 |①--②|
③⑥口④ |--③-|
①口③④ |-④--|
⑥⑤口⑤ |⑤-⑥-|
84
①②③④ |①②③④⑤⑥|
⑧口⑤⑧ |⑦-⑧-|
⑧口⑥⑧ |----|
口口⑦口 |----|
不確定度: 0