FUNKY SUMMER BEACH
P*Light

EXTREME

Level: 10
BPM: 175
Notes: 856

1
口口口口 |----|
口口口口 |----|
口口口口 |----|
口口口口 |----|
2
⑤口口② |①---|
口⑥③口 |②-③-|
口④口口 |④---|
口①①口 |⑤-⑥-|
3
⑥①⑥③ |①-②-|
②⑦④口 |③-④-|
③⑤①口 |⑤---|
口口⑤口 |⑥-⑦-|
4
⑤口口② |①---|
口⑥③口 |②-③-|
口④①口 |④---|
口口口口 |⑤-⑥-|
5
⑥①口③ |①-②-|
②⑦④⑥ |③-④-|
③⑤①口 |⑤---|
口口⑤口 |⑥-⑦-|
6
⑤口口② |①---|
口⑥③口 |②-③-|
口④①口 |④---|
口①口口 |⑤-⑥-|
7
⑥①⑥③ |①-②-|
②⑦④口 |③-④-|
③⑤①口 |⑤---|
口口⑤口 |⑥-⑦-|
8
⑤口口② |①---|
口⑥③口 |②-③-|
口④①口 |④---|
口口口口 |⑤-⑥-|
9
⑥①⑤③ |①-②-|
②⑦④⑦ |③-④-|
③⑥①⑤ |⑤-⑥-|
口口口口 |⑦---|
10
⑥②⑦③ |①-②-|
②⑪③口 |③-④⑤|
④⑧⑨⑫ |⑥⑦⑧⑨|
⑩①①⑤ |⑩-⑪⑫|
11
⑪①⑩⑥ |①②③④|
③口⑧② |⑤⑥⑦⑧|
⑦⑨⑫口 |⑨⑩⑪⑫|
⑬⑤④口 |⑬---|
12
口口口④ |-①②③|
⑤①口⑥ |④⑤⑥⑦|
口⑦口②
口③口口

⑪⑬⑫口
口⑬⑫口
口口⑩口 |⑧⑨⑩⑪|
⑨口口⑧ |⑫-⑬-|
13
口口口口 |①-②③|
④口口⑤ |④⑤⑥⑦|
①⑥口①
口②③⑦

⑧⑪口口
口⑪⑨口
口口⑫⑫ |⑧⑨⑩-|
⑩口口口 |⑪-⑫-|
14
⑩⑩①① |①-②③|
②⑫⑦③ |④⑤⑥-|
④⑧口⑪ |⑦⑧⑨-|
⑨⑥⑤口 |⑩-⑪⑫|
15
口口①① |①-②-|
②口口口 |③④⑤⑥|
②口口口
⑥⑤④③

⑪⑫⑬⑭
口口⑧⑦
口⑩⑨口 |⑦⑧⑨⑩|
口口口口 |⑪⑫⑬⑭|
16
口口口口 |①-②-|
①①⑥④ |③---|
③⑥⑤③ |④-⑤⑥|
口④②② |----|
17
①①③口 |--①-|
口④⑤口 |②---|
③⑤口口 |③-④⑤|
口口②② |----|
18
①②口① |①--②|
①⑤口① |--③-|
口⑧⑦⑥ |④-⑤-|
口③④口 |⑥⑦⑧-|
19
③口口④ |①--②|
口⑤口② |--③-|
口⑧⑦⑥ |④-⑤-|
口口⑥① |⑥⑦⑧-|
20
口①⑤口 |①--②|
①口②口 |--③-|
③⑥⑦⑧ |④-⑤-|
口口口④ |⑥⑦⑧-|
21
①④③② |①---|
③口口④ |②---|
口口口口 |③---|
口②①口 |④---|
22
②口口口 |①②③④|
口⑥⑤口 |⑤⑥⑦⑧|
⑧口口①
④口⑦③

口口⑨⑬
口口口⑭
口⑩⑪⑮ |⑨⑩⑪⑫|
口⑫口⑯ |⑬⑭⑮⑯|
23
⑦①⑥口 |①②③④|
③⑤②⑬ |⑤⑥⑦⑧|
⑪⑫⑧⑬ |⑨⑩⑪⑫|
⑨⑩④口 |⑬---|
24
⑤③⑧④ |①②③④|
①口②口 |⑤⑥⑦⑧|
口口口口
⑦口口⑥

口口口口
⑮⑪⑯口
口⑨⑫⑭ |⑨⑩⑪⑫|
口⑬⑩口 |⑬⑭⑮⑯|
25
⑨①③⑨ |①-②-|
口口口② |③-④-|
④⑥⑤口 |⑤⑥⑦⑧|
口⑧⑦口 |⑨---|
26
口①⑦口 |①-②③|
⑤⑦①③ |-④⑤-|
口⑩⑨⑧ |⑥-⑦-|
②⑥⑥④ |⑧⑨⑩-|
27
⑤①⑥③ |①-②③|
⑩⑦①⑥ |-④⑤-|
⑦⑩⑨⑧ |⑥-⑦-|
②口口④ |⑧⑨⑩-|
28
⑥②⑥④ |①-②③|
口⑩口⑦ |-④⑤-|
⑦口⑨⑧ |⑥-⑦-|
⑤①①③ |⑧⑨⑩-|
29
③①④② |①--②|
②口①④ |--③-|
⑤⑤⑥⑥ |④-⑤-|
口口③口 |⑥---|
30
口①⑦③ |①-②③|
⑤⑦①口 |-④⑤-|
口⑩⑨⑧ |⑥-⑦-|
②⑥⑥④ |⑧⑨⑩-|
31
⑤①⑥③ |①-②③|
⑩⑦①⑥ |-④⑤-|
⑦⑩⑨⑧ |⑥-⑦-|
②口口④ |⑧⑨⑩-|
32
⑥②⑥④ |①-②③|
口⑩口⑦ |-④⑤-|
⑦口⑨⑧ |⑥-⑦-|
⑤①①③ |⑧⑨⑩-|
33
口①④② |①--②|
②口①④ |--③-|
⑤⑤⑥⑥ |④-⑤-|
口③口③ |⑥---|
34
②④⑥⑧ |①-②-|
④②⑧⑥ |③-④-|
口口口口 |⑤-⑥-|
①③⑤⑦ |⑦-⑧-|
35
②④⑥⑧ |①-②-|
④②口⑥ |③-④-|
口⑤⑦⑧ |⑤-⑥-|
①③⑤⑦ |⑦-⑧-|
36
②④⑥⑧ |①-②-|
④②⑧⑥ |③-④-|
口口口口 |⑤-⑥-|
①③⑤⑦ |⑦-⑧-|
37
②④⑥⑧ |①-②-|
④②口⑥ |③-④-|
③口⑦⑧ |⑤-⑥-|
①③⑤⑦ |⑦-⑧-|
38
②④⑥⑧ |①-②-|
④②口⑥ |③-④-|
口口⑦⑧ |⑤-⑥-|
①③⑤⑦ |⑦-⑧-|
39
②④⑥⑧ |①-②-|
④②口⑥ |③-④-|
口⑤⑦⑧ |⑤-⑥-|
①③⑤⑦ |⑦-⑧-|
40
②④⑥⑧ |①-②-|
④②⑧⑥ |③-④-|
口口口口 |⑤-⑥-|
①③⑤⑦ |⑦-⑧-|
41
②④⑥⑧ |①-②-|
④②口⑥ |③-④-|
③口⑦⑧ |⑤-⑥-|
①③⑤⑦ |⑦-⑧-|
42
口口口口 |①---|
口①①口 |----|
口口口口 |----|
口口口口 |----|
43
口口口口 |----|
口口口口 |----|
口口口口 |----|
口口口口 |----|
44
①口⑤① |①---|
口③⑥④ |②-③-|
⑥口③⑦ |④-⑤-|
口⑤口② |⑥-⑦-|
45
口口口② |①---|
⑤口口③ |②---|
口④④口 |③-④-|
③口①⑤ |⑤---|
46
⑥口⑦④ |①-②-|
⑦⑦③⑥ |③-④-|
④口⑤② |⑤-⑥-|
口①①⑧ |⑦-⑧-|
47
⑤口口④ |①---|
口⑥③口 |②-③-|
④口口② |④-⑤-|
口口①⑥ |⑥---|
48
口④①口 |①-②-|
口口口② |③-④-|
口口③④
①口口口

口口⑧⑤
口⑦⑦口
⑥口口口 |⑤-⑥-|
口口口口 |⑦-⑧-|
49
②⑥口④ |①-②-|
⑤口⑦① |③-④-|
口④②⑥ |⑤---|
口口⑤③ |⑥-⑦-|
50
⑥口③④ |①-②-|
口④口② |③-④-|
⑤口①⑤ |--⑤-|
①口⑥口 |--⑥-|
51
口口口口 |----|
口口口口 |----|
口口口口 |----|
口口口口 |----|
52
⑦⑦①① |①---|
口⑥③口 |②-③-|
口②⑤④ |④-⑤-|
①①⑦⑦ |⑥-⑦-|
53
⑤口①① |①---|
③口④② |②---|
口④口③ |③-④-|
①①口⑤ |⑤---|
54
⑧口①口 |①-②-|
口④⑦⑤ |③-④-|
②⑥③口 |⑤-⑥-|
口①口⑧ |⑦-⑧-|
55
口⑤③① |①---|
④口口④ |②---|
口③⑤口 |③-④-|
①②②口 |⑤---|
56
①口口① |①-②-|
⑤③②⑤ |③-④-|
口口口⑥ |⑤-⑥-|
⑦口④⑧ |⑦-⑧-|
57
⑤①①⑤ |①-②-|
口口②⑥ |③-④-|
口③⑧口 |⑤-⑥-|
⑦口④口 |⑦-⑧-|
58
⑬①⑫⑥ |①②③④|
⑨⑤⑧⑩ |⑤⑥⑦⑧|
③⑪⑭④ |⑨⑩⑪⑫|
⑮⑦⑯② |⑬⑭⑮⑯|
59
口①口④ |①-②-|
⑤⑥⑦⑧ |③-④-|
②⑨⑨口 |⑤⑥⑦⑧|
口⑨⑨③ |⑨---|
60
①③①⑤ |①-②③|
⑦⑩⑨⑨ |-④⑤-|
⑩口口⑥ |⑥⑦-⑧|
④⑧口② |⑨-⑩-|
61
③⑦⑨⑤ |①-②③|
⑩口口⑨ |-④⑤-|
⑩口①⑥ |⑥⑦-⑧|
④⑧①② |⑨-⑩-|
62
⑤口口口 |①-②③|
口口③口 |-④⑤-|
口口①口
②口①④

口口口⑦
口⑨口⑩
⑨⑥⑩⑧ |⑥⑦-⑧|
口口口口 |⑨-⑩-|
63
⑤①①⑤ |①-②③|
③⑨③⑨ |-④⑤-|
⑩⑦⑩⑦ |⑥⑦-⑧|
②⑧⑥④ |⑨-⑩-|
64
⑤①①⑦ |①-②③|
⑨⑨③口 |-④⑤-|
口⑥⑩⑩ |⑥⑦-⑧|
②口⑧④ |⑨-⑩-|
65
口①①口 |①-②③|
口口③③ |-④⑤-|
⑤⑤口口
②口口④

⑨口⑩⑦
⑨口口口
口口口⑩ |⑥⑦-⑧|
口⑥⑧口 |⑨-⑩-|
66
口⑤口⑩ |①-②③|
⑨①③⑦ |-④⑤-|
口⑨①⑩ |⑥⑦-⑧|
②⑥⑧④ |⑨-⑩-|
67
①④①口 |①--②|
口②②④ |--③-|
⑤⑥⑦⑧ |-④--|
口③口③ |⑤⑥⑦⑧|
68
②④⑥⑧ |①-②-|
④②⑧⑥ |③-④-|
口口口口 |⑤-⑥-|
①③⑤⑦ |⑦-⑧-|
69
②④⑥⑧ |①-②-|
④②口⑥ |③-④-|
口⑤⑦⑧ |⑤-⑥-|
①③⑤⑦ |⑦-⑧-|
70
②④⑥⑧ |①-②-|
④②⑧⑥ |③-④-|
口口口口 |⑤-⑥-|
①③⑤⑦ |⑦-⑧-|
71
②④⑥⑧ |①-②-|
④②口⑥ |③-④-|
③口⑦⑧ |⑤-⑥-|
①③⑤⑦ |⑦-⑧-|
72
③⑦⑥口 |①-②-|
⑦口②⑧ |③-④-|
口①⑧口 |⑤-⑥-|
①⑤④口 |⑦-⑧-|
73
⑤⑦口② |①-②-|
⑦口⑥⑧ |③-④-|
③①⑧口 |⑤-⑥-|
①口口④ |⑦-⑧-|
74
⑦口④口 |①-②-|
口口⑥口 |③-④-|
⑤①⑧③ |⑤-⑥-|
①口②口 |⑦-⑧-|
75
⑩⑪⑫① |①②③④|
⑨⑯⑬② |⑤⑥⑦⑧|
⑧⑮⑭③ |⑨⑩⑪⑫|
⑦⑥⑤④ |⑬⑭⑮⑯|
76
口口口① |①---|
口口口① |----|
口口口口 |----|
口口口口 |----|

不確定度: 0

最終更新:2014年11月30日 15:41