ケッペキショウ
すこっぷ feat.GUMI

ADVANCED

Level: 8
BPM: 190
Notes: 610

1
口口口① |----|
口口口口 |----|
口口口口 |----|
口口口口 |①---|
2
口口⑦口 |①-②-|
⑥⑧口③ |③-④-|
口口⑤口 |⑤-⑥-|
②④口① |⑦-⑧-|
3
⑥⑧口③ |①-②-|
口口⑦口 |③-④-|
②④口① |⑤-⑥-|
口口⑤口 |⑦-⑧-|
4
口口⑤口 |①-②-|
②④口① |③-④-|
口口⑦口 |⑤-⑥-|
⑥⑧口③ |⑦-⑧-|
5
②④口① |①-②-|
口口⑤口 |③-④-|
⑥⑧口③ |⑤-⑥-|
口口⑦口 |⑦-⑧-|
6
口口⑦口 |①-②-|
⑥⑧口③ |③-④-|
口口⑤口 |⑤-⑥-|
②④口① |⑦-⑧-|
7
⑥⑧口③ |①-②-|
口口⑦口 |③-④-|
②④口① |⑤-⑥-|
口口⑤口 |⑦-⑧-|
8
口口⑤口 |①-②-|
②④口① |③-④-|
口口⑦口 |⑤-⑥-|
⑥⑧口③ |⑦-⑧-|
9
②④口① |①-②-|
口口⑤口 |③-④-|
口口口③ |⑤---|
口⑥口口 |--⑥-|
10
口口口⑥ |①-②-|
口②⑤口 |--③-|
口①④口 |④-⑤-|
口口③口 |--⑥-|
11
口②①口 |--①-|
口口口① |--②-|
口口口② |--③-|
④口⑤③ |④-⑤-|
12
口口口口 |①-②-|
口⑤②口 |--③-|
口④①口 |④-⑤-|
⑥③口口 |--⑥-|
13
②③④口 |①-②-|
③口口口 |--③-|
④口①口 |--④-|
口⑤口口 |--⑤-|
14
口口口⑥ |①-②-|
口②⑤口 |--③-|
口①④口 |④-⑤-|
口口③口 |--⑥-|
15
①③②口 |①-②-|
⑤口口② |--③-|
口口口③ |--④-|
口口⑥④ |⑤-⑥-|
16
⑥口口口 |①-②-|
口⑤②口 |--③-|
口④①口 |④-⑤-|
口③口口 |--⑥-|
17
口①②口 |--①-|
①口口口 |--②-|
②④③口 |--③-|
口口口口 |④---|
18
口口⑦口 |①-②-|
⑥⑧口③ |③-④-|
口口⑤口 |⑤-⑥-|
②④口① |⑦-⑧-|
19
⑥⑧口③ |①-②-|
口口⑦口 |③-④-|
②④口① |⑤-⑥-|
口口⑤口 |⑦-⑧-|
20
口口⑤口 |①-②-|
②④口① |③-④-|
口口⑦口 |⑤-⑥-|
⑥⑧口③ |⑦-⑧-|
21
②④口① |①-②-|
口口⑤口 |③-④-|
口口口③ |⑤---|
口口口⑥ |--⑥-|
22
口口口⑥ |①-②-|
口②⑤口 |--③-|
口④①口 |④-⑤-|
③口口口 |--⑥-|
23
口②①口 |--①-|
口口口① |--②-|
口口口② |--③-|
⑤③④口 |④-⑤-|
24
⑥口口口 |①-②-|
口⑤②口 |--③-|
口①④口 |④-⑤-|
口口口③ |--⑥-|
25
口①②口 |--①-|
①口口口 |--②-|
②口口口 |③-④-|
口④③⑤ |--⑤-|
26
口口口⑥ |①-②-|
口②⑤口 |--③-|
口④①口 |④-⑤-|
③口口口 |--⑥-|
27
①③②口 |①-②-|
口口口② |--③-|
口口口③ |--④-|
⑥④⑤口 |⑤-⑥-|
28
⑥口口口 |①-②-|
口⑤②口 |--③-|
口①④口 |④-⑤-|
口口口③ |--⑥-|
29
口①②③ |--①-|
①口口口 |--②-|
②口口口 |--③-|
③口口口 |----|
30
⑧⑩⑦⑨ |①-②-③-|
⑥口⑤口 |④-⑤-⑥-|
口④口③ |⑦-⑧-⑨-|
⑪②口① |⑩---⑪-|
31
⑥口⑦口 |①-②-③-|
口④口⑤ |④-⑤-⑥-|
②口③口 |⑦---|
口口①口 |----|
32
口口口⑪ |①-②-③-|
⑩口⑨口 |④-⑤-⑥-|
⑧②⑦① |⑦-⑧-⑨-|
⑥④⑤③ |⑩---⑪-|
33
口①口口 |①-②-③-|
口③口② |④-⑤-⑥-|
口⑤口④ |⑦---|
⑦口⑥口 |----|
34
口口⑦口 |①-②-③-|
口⑥口⑤ |④-⑤-⑥-|
④⑩③⑪ |⑦---⑧-|
⑧②⑨① |⑨-⑩-⑪-|
35
⑤③⑥④ |①-②-③-|
①⑦②口 |④-⑤-⑥-|
口口口⑨ |⑦---|
口口口⑧ |⑧-⑨-|
36
口口口口 |①---|
口口口① |--②-|
②③口口 |③---|
口④④口 |--④-|
37
口②②口 |----|
口①①口 |①---|
口口口口 |②---|
口口口口 |----|
38
④⑥口⑤ |①-②-|
⑥口口③ |③---|
口口口② |④---|
口口①口 |⑤-⑥-|
39
口口①口 |--①-|
口⑤②口 |--②-|
①②④口 |--③-|
口③口口 |④-⑤-|
40
口③①口 |①---|
③口②① |②-③-|
口口口口
口口口口

口口⑤口
口口口⑤
口④口口 |--④-|
口口口口 |--⑤-|
41
口口口口 |--①-|
口②③口 |②-③-|
口口口口 |④---|
①口口④ |----|
42
④口⑤③ |①---|
②口口⑤ |②---|
口口口口 |③---|
口①口口 |④-⑤-|
43
口①口口 |--①-|
口②⑤口 |--②-|
口④②① |--③-|
口口③口 |④-⑤-|
44
口①③口 |①---|
①②口③ |②-③-|
口口口口
口口口口

口⑤口口
⑤口口口
口口④口 |--④-|
口口口口 |--⑤-|
45
口口口口 |--①-|
口③②口 |②-③-|
口口口口 |④---|
④口口① |----|
46
⑥④口⑤ |①-②-|
④⑥口③ |③---|
口口口② |④---|
口口口① |⑤-⑥-|
47
口口①口 |--①-|
口口⑤② |--②-|
①口④口 |--③-|
口②③口 |④-⑤-|
48
③①口口 |①---|
①③口口 |②-③-|
口口口口
口口口②

口⑤口口
⑤口口口
口口口④ |--④-|
口口口口 |--⑤-|
49
口口口口 |--①-|
口口口口 |②-③-|
口②③口 |④---|
①口口④ |----|
50
⑤口④⑥ |①-②-|
③口⑥④ |③---|
②口口口 |④---|
①口口口 |⑤-⑥-|
51
口①口口 |--①-|
②⑤口口 |--②-|
口④口① |--③-|
口③②口 |④-⑤-|
52
口③①② |①---|
③口②① |--②-|
⑤口④口 |③---|
口⑤口④ |④-⑤-|
53
口口口⑤ |--①-|
口②口① |②-③-|
口④口③ |④---|
口口口口 |⑤---|
54
口口口⑦ |①-②-|
⑥⑧③口 |③-④-|
口口⑤口 |⑤-⑥-|
②④口① |⑦-⑧-|
55
⑥⑧⑦口 |①-②-|
口口口③ |③-④-|
②④口⑤ |⑤-⑥-|
口口①口 |⑦-⑧-|
56
口口口① |①-②-|
②④⑤口 |③-④-|
口口③口 |⑤-⑥-|
⑥⑧口⑦ |⑦-⑧-|
57
②④①口 |①-②-|
口口口⑤ |③-④-|
⑥⑧口③ |⑤-⑥-|
口口⑦口 |⑦-⑧-|
58
口口口⑦ |①-②-|
⑥⑧⑤口 |③-④-|
口口③口 |⑤-⑥-|
②④口① |⑦-⑧-|
59
⑥⑧⑦口 |①-②-|
口口口⑤ |③-④-|
②④口③ |⑤-⑥-|
口口①口 |⑦-⑧-|
60
口口⑦口 |①-②-|
②④口⑤ |③-④-|
口口③口 |⑤-⑥-|
⑥⑧口① |⑦-⑧-|
61
②④⑥口 |①-②-|
口口⑤⑥ |③-④-|
口口口③ |⑤---|
口口①口 |⑥---|
62
⑤口⑥④ |①-②-|
③口口口 |③---|
②口口口 |④---|
口①口口 |⑤-⑥-|
63
口口口口 |--①-|
口口①⑤ |--②-|
④②②③ |--③-|
②口口② |④-⑤-|
64
③①口口 |①---|
①③口口 |②-③-|
口口②口
口口口口

口⑤口口
⑤口④口
口口口口 |--④-|
口口口口 |--⑤-|
65
口口口口 |--①-|
口口口口 |②-③-|
口③②口 |④---|
④口口① |----|
66
口⑦口⑥ |①-②-|
口口口③ |③---|
⑤口口② |④-⑤-|
④口①口 |⑥-⑦-|
67
口口口口 |--①-|
①⑤①口 |--②-|
口②④② |--③-|
③②口② |④-⑤-|
68
口口①③ |①---|
口口③① |②-③-|
②口口口
口口口口

口口⑤口
④口口⑤
口口口口 |--④-|
口口口口 |--⑤-|
69
口口口口 |--①-|
口口口口 |②-③-|
口②③口 |④---|
①口口④ |----|
70
口④⑥口 |①-②-|
④口口⑥ |③---|
口⑤口③ |④---|
②口①口 |⑤-⑥-|
71
口口口口 |--①-|
⑤①口口 |--②-|
④口口② |--③-|
③口②口 |④-⑤-|
72
③口①口 |①---|
口③④① |②-③-|
口⑤②口 |--④-|
⑤口口口 |--⑤-|
73
口③②口 |--①-|
④口口① |②-③-|
口口口口 |④---|
口口口口 |----|
74
⑤口④口 |①-②-|
口⑦口⑥ |③---|
③口口口 |④-⑤-|
口①口② |⑥-⑦-|
75
口口口口 |--①-|
口口⑤口 |--②-|
④①①③ |--③-|
②②②② |④-⑤-|
76
口①③口 |①---|
①②口③ |--②-|
口④④口 |③---|
④口口④ |--④-|
77
口②口① |--①-|
④口③口 |②-③-|
口⑤⑤口 |④---|
口口口口 |⑤---|
78
口口口⑦ |①-②-|
⑥⑧口③ |③-④-|
口口口⑤ |⑤-⑥-|
②④口① |⑦-⑧-|
79
⑥⑧⑦口 |①-②-|
口口③口 |③-④-|
②④⑤口 |⑤-⑥-|
口口①口 |⑦-⑧-|
80
口口⑦口 |①-②-|
②④③口 |③-④-|
口口口⑤ |⑤-⑥-|
⑥⑧口① |⑦-⑧-|
81
②④口⑦ |①-②-|
口口口③ |③-④-|
⑥⑧⑤口 |⑤-⑥-|
口口①口 |⑦-⑧-|
82
口口⑦口 |①-②-|
⑥⑧⑤口 |③-④-|
口口口③ |⑤-⑥-|
②④口① |⑦-⑧-|
83
⑥⑧口⑦ |①-②-|
口口口⑤ |③-④-|
②④③口 |⑤-⑥-|
口口①口 |⑦-⑧-|
84
口口口⑦ |①-②-|
口口口⑤ |③-④-|
⑥⑧口③ |⑤-⑥-|
②④口① |⑦-⑧-|
85
⑥⑥⑦⑦ |①-②-|
②④⑤⑤ |③-④-|
口口③口 |⑤-⑥-|
口口①口 |⑦---|

不確定度: 0

最終更新:2014年12月11日 23:22