Cleopatrysm
ピラミッ℃
EXTREME
Level: 10
BPM: 190
Notes: 860
1
口口口口 |----|
口口口口 |----|
口口口口 |----|
口口口口 |----|
2
口⑤口口 |----|
口④口口 |----|
口③口口 |--①②|
口②①口 |③④⑤-|
3
②口口① |①--②③④|
③口口口 |⑤-⑥-|
④口口口
⑤口口⑥
口口⑦⑪
口口⑧口
口口⑨口 |--⑦⑧|
口口⑩口 |⑨⑩⑪-|
4
口④口口 |--①-|
②⑤口① |②-③-|
口⑥口③ |--④⑤|
口⑦⑧口 |⑥⑦⑧-|
5
⑤口口① |①--②③④|
④⑩⑨⑧ |⑤-⑥-|
③口口⑦ |--⑦-|
②口口⑥ |⑧⑨⑩-|
6
口③⑨① |①-②-|
④口⑧口 |③-④-|
口口⑦口 |--⑤⑥|
②⑤⑥口 |⑦⑧⑨-|
7
①口口② |①--②③④|
⑥口口③ |⑤-⑥-|
①口口④
⑥口口⑤
⑪⑦口口
口⑧口口
⑪⑨口口 |--⑦⑧|
口⑩口口 |⑨⑩⑪-|
8
口口口④ |---①②③|
口口口③ |④-⑤-|
口⑦⑥② |--⑥-|
⑤口⑧① |⑦-⑧-|
9
⑥⑪⑪⑤ |①②③④|
①②③④ |⑤-⑥-|
⑩⑨⑧⑦ |---⑦⑧⑨|
⑥⑪⑪⑤ |⑩-⑪-|
10
口口口口 |----|
口口口口 |--①-|
口口口口 |----|
②口口① |②---|
11
②口口① |①---|
口口口口 |--②-|
口口口口
口口口口
口口③⑤
口口口口
口口口口 |--③-|
口口④口 |④-⑤-|
12
④②口口 |----|
口口口口 |--①-|
①口口口 |--②-|
口③口口 |③-④-|
13
口③口口 |①---|
口口口口 |--②-|
②口⑤口 |--③-|
①④口⑤ |④-⑤-|
14
口口④口 |--①-|
②②③③ |--②-|
口①口口 |--③-|
①④口④ |--④-|
15
⑤③口口 |①---|
口口口口 |--②-|
②口口口 |--③-|
①④口口 |④-⑤-|
16
口口②④ |----|
口口口口 |--①-|
①口口口 |②-③-|
口口③⑤ |④-⑤-|
17
口口口口 |①---|
⑤③口② |②-③-|
③⑤口④ |----|
①口口口 |④-⑤-|
18
④⑤口口 |--①-|
口③口③ |--②-|
②口②口 |--③-|
口①口① |--④⑤|
19
口口口① |①---|
口口口口 |--②-|
口口口①
口口口②
口口③⑤
口口口口
口口口口 |--③-|
口口④口 |④-⑤-|
20
⑤③口口 |①---|
口口口口 |--②-|
②口口口 |--③-|
①④口口 |④-⑤-|
21
口口口口 |①---|
口口口口 |--②-|
②口口口
①口口口
口口③口
口口口口
口⑤口口 |--③-|
⑤口④口 |④-⑤-|
22
口④口口 |--①-|
③③②② |--②-|
口口①口 |--③-|
④口④① |--④-|
23
口口③⑤ |①---|
口口口口 |--②-|
口口口② |--③-|
口口④① |④-⑤-|
24
⑤③口口 |①---|
⑦口口口 |②-③-|
口口口② |④-⑤-|
⑥④口① |⑥-⑦-|
25
⑫⑧⑤⑬ |①②③④|
口④①⑨ |⑤⑥⑦⑧|
⑥②③⑦ |⑨⑩⑪⑫|
口⑩⑪口 |⑬---|
26
口口口口 |----|
口口口口 |①---|
②口口口 |----|
①③④口 |②-③-④-|
27
⑥口口⑨ |①-②-③-|
⑤⑦⑧② |④-⑤-⑥-|
口④③① |⑦-⑧-⑨-|
⑩⑪⑫口 |⑩-⑪-⑫-|
28
口⑧口⑨ |①-②-③-|
⑥⑫⑦口 |④-⑤-⑥-|
②③④⑤ |⑦-⑧-⑨-|
⑩口⑪① |⑩-⑪-⑫-|
29
④口③⑦ |①-②-③-|
⑥口⑤① |④-⑤-⑥-|
④②③⑦ |⑦---|
口⑥口⑤ |----|
30
口口①口 |①---|
口①④① |----|
③⑤①口 |②---|
②口①② |③-④⑤|
31
口⑥③⑦ |①②③④|
④②⑧⑤ |⑤-⑥-|
口口①③ |⑦---|
口④⑤⑦ |⑧---|
32
①口口④ |①---|
口⑤口口 |--②-|
口口⑥③ |③---|
①口口② |④-⑤⑥|
33
⑦③⑥口 |①②③④|
⑤⑧②④ |⑤-⑥-|
③①口口 |⑦---|
⑦⑤④口 |⑧---|
34
口口口① |①---|
口口口口 |----|
口口口口
口口口①
⑤口口口
口口口口
口③口口 |②---|
口②②④ |③-④⑤|
35
口⑦⑤③ |①②③④|
④②口⑤ |⑤-⑥-|
⑥口①③ |⑦---|
④⑧⑦口 |⑧---|
36
①口口① |①---|
口口口口 |----|
口口口口 |②---|
口③②口 |③---|
37
②⑦口① |①--②|
⑥④③⑤ |-③④-|
②④③① |⑤--⑥|
⑦⑥⑤口 |--⑦-|
38
口口口① |①---|
口口口口 |----|
口口口口
口口口①
口口口⑤
口②口口
口口③口 |②---|
④口口口 |③-④⑤|
39
③⑤⑦口 |①②③④|
⑤口②④ |⑤-⑥-|
③①口⑥ |⑦---|
口⑦⑧④ |⑧---|
40
①口口口 |①---|
口口口口 |--②-|
口口口口
①口口②
⑤口口口
口④口口
口口口③ |③---|
口口⑤口 |④-⑤-|
41
口①③④ |①-②-|
②口②⑤ |③--④⑤⑥|
③②①⑥ |⑦---|
口③口⑦ |----|
42
口①②口 |①---|
口③口④ |----|
⑤口口口 |②---|
①口①口 |③-④⑤|
43
⑥④⑦⑤ |①②③④|
④⑧①⑧ |⑤-⑥-|
口②⑤③ |⑦---|
口⑦③⑦ |⑧---|
44
口口口口 |①---|
口口口口 |----|
口①口① |----|
①口①口 |----|
45
口口①⑥ |①---|
口①①⑤ |----|
口①①④ |--②③|
口①②③ |④⑤⑥-|
46
②①①口 |①---|
⑤口③口 |②-③-|
①②④口 |④---|
④⑤⑤口 |⑤---|
47
口②口① |①-②-|
⑧④口③ |③-④-|
②口口⑤ |⑤-⑥-|
⑥⑦口⑦ |⑦-⑧-|
48
口①③① |①---|
口②口⑥ |②-③-|
⑤④①③ |④-⑤-|
⑤⑥⑥口 |⑥---|
49
①⑨口④ |①-②-|
③⑧②口 |③---|
④⑦④口 |④-⑤⑥|
口⑥⑤② |⑦⑧⑨-|
50
①口⑤⑥ |①---|
③⑥⑤④ |②-③-|
口口口② |④-⑤-|
③⑥口① |⑥---|
51
⑤②⑥口 |①-②-|
口⑥④口 |③---|
口②③口 |④-⑤-|
口⑦①口 |⑥-⑦-|
52
⑥口⑥口 |①---|
④⑤③① |②-③-|
②⑤⑥口 |④-⑤-|
①口③① |⑥---|
53
④③口② |①-②-|
口口③④ |----|
③④口② |--③-|
口①④③ |-④--|
54
口口①④ |①-②-|
口①口口 |③-④-|
口口②①
①③口口
⑥⑤口口
⑦口口口
⑧口口口 |--⑤⑥|
⑨口口口 |⑦⑧⑨-|
55
口口④⑤ |--①-|
口①口⑥ |②-③-|
口口②⑦ |--④⑤|
口③口⑧ |⑥⑦⑧-|
56
⑤⑩⑨⑧ |①--②③④|
④⑦①口 |⑤-⑥-|
③⑥口口 |--⑦-|
②口口口 |⑧⑨⑩-|
57
口口口⑨ |①-②-|
口口①⑧ |③-④-|
口④③⑦ |--⑤⑥|
口②⑤⑥ |⑦⑧⑨-|
58
②⑥⑦口 |①--②③④|
③⑪⑧口 |⑤-⑥-|
④口⑨口 |--⑦⑧|
⑤①⑩口 |⑨⑩⑪-|
59
⑤⑧口① |---①②③|
口口口② |④-⑤-|
口口⑦③ |--⑥-|
口⑥口④ |⑦-⑧-|
60
⑥⑪⑪⑤ |①②③④|
①②③④ |⑤-⑥-|
⑩⑨⑧⑦ |---⑦⑧⑨|
⑥⑪⑪⑤ |⑩-⑪-|
61
口口口口 |----|
口口口口 |----|
口口口口 |①---|
口口②① |②---|
62
⑥①⑥① |①--②③④|
①口口⑥ |⑤-⑥-|
⑤④③②
口口口口
口⑪口口
⑪口口口
口口口口 |--⑦⑧|
⑦⑧⑨⑩ |⑨⑩⑪-|
63
口口②① |--①-|
口⑤④② |②-③-|
③⑦⑥③ |--④⑤|
口口⑧口 |⑥⑦⑧-|
64
②③④⑤ |①--②③④|
口口口口 |⑤-⑥-|
⑥⑩⑨⑧ |--⑦-|
⑦⑥口① |⑧⑨⑩-|
65
②口口口 |①-②-|
口口口① |③-④-|
④口口口
口④③①
口⑧⑦口
口⑥⑤⑨
口口口口 |--⑤⑥|
口口口口 |⑦⑧⑨-|
66
①口口⑥ |①--②③④|
①口口口 |⑤-⑥-|
⑤④③②
口口口口
⑪⑪口口
⑪口口口
口口口口 |--⑦⑧|
⑦⑧⑨⑩ |⑨⑩⑪-|
67
口口⑤⑤ |---①②③|
口口口⑤ |④-⑤-|
④③②① |--⑥-|
⑧⑦⑥口 |⑦-⑧-|
68
⑥⑪⑤⑦ |①②③④|
口④③⑧ |⑤-⑥-|
⑥②①⑨ |---⑦⑧⑨|
⑪口⑪⑩ |⑩-⑪-|
69
口口②① |----|
口口④③ |----|
口口⑥⑤ |①②③④|
口口⑧⑦ |⑤⑥⑦⑧|
70
⑤④⑤⑦ |①-②③|
⑥③⑥⑧ |-④--|
①②口⑨ |-⑤-⑥|
①④口⑩ |⑦⑧⑨⑩|
71
口④口口 |①--②|
口③口口 |-③④-|
口②②口
①口口口
⑦口⑤口
⑧口口⑥
⑨口口口 |⑤--⑥|
⑩口⑤口 |⑦⑧⑨⑩|
72
口口口口 |①--②|
口口③口 |-③--|
口口口口
口②口①
口④④⑥
⑤口口⑦
口⑤口⑧ |④--⑤|
口口口⑨ |⑥⑦⑧⑨|
73
口④④口 |①②--|
口②③口 |③-④-|
口口③口
①口口口
⑧口口⑦
⑨口口口
⑩口口口 |⑤⑥⑦-|
⑪⑤⑥口 |⑧⑨⑩⑪|
74
口口④口 |①-②③|
口口口口 |-④--|
口③②口
口口口①
口⑤口⑦
⑥口⑤⑧
口口口⑨ |-⑤-⑥|
口口口⑩ |⑦⑧⑨⑩|
75
口口口口 |①--②|
口④口口 |-③④-|
口③口口
①②②口
⑨⑦⑤⑧
⑩口⑥口
⑪口口口 |⑤⑥⑦⑧|
⑫口口口 |⑨⑩⑪⑫|
76
口口口口 |①--②|
口③口口 |-③--|
口口口口
口口②①
⑥④口⑦
口口⑤⑧
口口口⑨ |④-⑤⑥|
口口口⑩ |⑦⑧⑨⑩|
77
口口③口 |①②--|
口④口口 |③-④-|
口②口口
①口口口
⑧口口口
⑨口口口
⑩口⑤口 |⑤⑥⑦-|
⑪⑦⑥口 |⑧⑨⑩⑪|
78
口口⑤① |①②③④|
口口⑥② |⑤⑥⑦⑧|
口口⑦③
口口⑧④
口⑩口⑫
⑪⑨口⑬
口⑨口口 |⑨⑩-⑪|
口口口口 |--⑫⑬|
79
①⑤口⑩ |①--②|
口口④⑨ |-③④-|
①⑥③⑧ |⑤--⑥|
②⑥口⑦ |⑦⑧⑨⑩|
80
①口口口 |①--②|
口口③口 |-③--|
口口口口
口口②口
⑩④④口
⑨口口口
⑧口⑥口 |④-⑤⑥|
⑦口口⑤ |⑦⑧⑨⑩|
81
口⑥⑤⑪ |①②--|
口②③⑩ |③-④-|
口①口⑨ |⑤⑥⑦-|
⑦④口⑧ |⑧⑨⑩⑪|
82
口口口口 |①-②③|
①④口口 |-④--|
口①③口
口口②口
⑩⑤口口
⑨口口口
⑧口口口 |-⑤-⑥|
⑦口口⑥ |⑦⑧⑨⑩|
83
口⑥⑤⑫ |①--②|
口⑦②⑪ |-③④-|
⑧④③⑩ |⑤⑥⑦⑧|
口①①⑨ |⑨⑩⑪⑫|
84
口口口口 |①--②|
③口口口 |-③--|
口口②口
①①口口
口口④口
口⑤④口
口⑥口口 |④-⑤⑥|
口⑦⑧口 |--⑦⑧|
85
③①⑨② |①②--|
③⑤⑥⑨ |③-④-|
⑦口④⑧ |⑤⑥⑦-|
口⑧口④ |⑧-⑨-|
86
⑧口口④ |①-②-|
口口口口 |③-④-|
⑤②口口 |⑤-⑥-|
①⑥③⑦ |⑦-⑧-|
87
口口口④ |①-②-|
口②③口 |③-④-|
口口口①
口口口口
口口口口
口口口口
口⑤⑥⑧ |⑤-⑥-|
口⑦口口 |⑦-⑧-|
88
②口口⑦ |①-②-|
口①⑧③ |③-④-|
口⑤口口 |⑤-⑥-|
⑥口④口 |⑦-⑧-|
89
②口口⑧ |①-②-|
③①⑦⑦ |③-④-|
④⑥⑥⑥ |⑤-⑥-|
⑤⑤⑤⑤ |⑦-⑧-|
不確定度: 0