Squeeze
VENUS feat. Mutsuhiko Izumi

BASIC

Level: 4
BPM: 173
Notes: 263

1
口口口口 |----|
口口口口 |----|
口口口口 |----|
口口口口 |----|
2
口口口口 |①---|
口口口口 |②---|
口③④口 |③---|
口①②口 |④---|
3
①③口口 |①---|
②④口口 |②---|
口口口口 |③---|
口口口口 |④---|
4
口口④④ |①---|
口口③③ |②---|
口口②② |③---|
口口①① |④---|
5
②口口② |①---|
①①口口 |----|
①①口口 |----|
口口口口 |②---|
6
口口口口 |①---|
口④口口 |②---|
②③口口 |③---|
①口口口 |④---|
7
口口口口 |①---|
口口④口 |②---|
口口③② |③---|
口口口① |④---|
8
①口口口 |①---|
②③口口 |②---|
口④口口 |③---|
口口口口 |④---|
9
口口口① |①---|
口口③② |②---|
口口④口 |③---|
口口口口 |④---|
10
口口口口 |①---|
口口口口 |②---|
口③④口 |③---|
①②口口 |④---|
11
口口②① |①---|
口④③口 |②---|
口口口口 |③---|
口口口口 |④---|
12
口口口④ |①---|
口口③口 |②---|
口②口口 |③---|
①口口口 |④---|
13
口口口口 |①---|
口①口口 |----|
口口①口 |----|
口口口口 |----|
14
①②口口 |①---|
口口③口 |②---|
口口④④ |③---|
口口口口 |④---|
15
口口②① |①---|
口③口口 |②---|
④④口口 |③---|
口口口口 |④---|
16
④④口口 |①---|
口③口口 |②---|
口口②口 |③---|
口口口① |④---|
17
口口④④ |①---|
口口③口 |②---|
口②口口 |③---|
①口口口 |④---|
18
口①口口 |①---|
②口口口 |②---|
口③口口 |③---|
④④口口 |④---|
19
口口①口 |①---|
口口口② |②---|
口口③口 |③---|
口口④④ |④---|
20
④④口口 |①---|
③口口口 |②---|
口②口口 |③---|
口①口口 |④---|
21
口口口口 |①---|
口①①口 |----|
口口口口 |----|
口口口口 |----|
22
口口口① |①---|
口口口口 |----|
口口口口 |----|
口口口口 |----|
23
口口口口 |①---|
口口口口 |----|
口①口口 |----|
口口口口 |----|
24
口口口口 |①---|
口口①口 |----|
口口口口 |----|
口口口口 |----|
25
口口口口 |①---|
口口口口 |----|
口口口口 |----|
①口口口 |----|
26
口口口口 |①---|
口口口口 |----|
口口①口 |----|
口口口口 |----|
27
口口口口 |①---|
口口口口 |----|
口口口口 |----|
口①口口 |----|
28
口口口口 |①---|
口口口口 |----|
口口口口 |----|
口口口① |----|
29
口口口口 |①---|
口口口口 |----|
口①口口 |----|
口口口口 |----|
30
口口口口 |①---|
口②口口 |----|
口口口口 |②---|
①口口口 |----|
31
口口口口 |①---|
口口②口 |----|
口口口口 |②---|
口口口① |----|
32
②口口口 |①---|
口口口口 |----|
口①口口 |②---|
口口口口 |----|
33
口口口② |①---|
口口口口 |----|
口口①口 |②---|
口口口口 |----|
34
口①口口 |①---|
口口口口 |----|
②口口口 |②---|
口口口口 |----|
35
口口①口 |①---|
口口口口 |----|
口口口② |②---|
口口口口 |----|
36
口口口口 |①---|
口口②口 |----|
口口口口 |②---|
口①口口 |----|
37
口口口口 |①---|
口②口口 |----|
口口口口 |②---|
口口①口 |----|
38
口口口口 |①---|
口口口口 |----|
口①①口 |----|
口口口口 |----|
39
①口口口 |①---|
③口口口 |②---|
口口口口 |③---|
口口口② |----|
40
口口口① |①---|
口口口③ |②---|
口口口口 |③---|
②口口口 |----|
41
口①口口 |①---|
口③口口 |②---|
口口口口 |③---|
口口②口 |----|
42
口口①口 |①---|
④口口③ |②---|
④口口③ |③---|
口②口口 |④---|
43
口①②口 |①---|
口③④口 |②---|
口口口口 |③---|
口口口口 |④---|
44
口口口口 |①---|
口口口口 |②---|
口①②口 |③---|
口③④口 |④---|
45
①口口② |①---|
③口口④ |②---|
口口口口 |③---|
口口口口 |④---|
46
②口口② |①---|
口口口口 |----|
口①①口 |----|
口口口口 |②---|
47
口口①口 |①---|
口口②口 |②---|
口③口口 |③---|
口④口口 |④---|
48
口④口口 |①---|
口③口口 |②---|
口口②口 |③---|
口口①口 |④---|
49
口口口① |①---|
口口口② |②---|
③口口口 |③---|
④口口口 |④---|
50
④口口口 |①---|
③口口口 |②---|
口口口② |③---|
口口口① |④---|
51
口口口① |①---|
口口②口 |②---|
口③口口 |③---|
④口口口 |④---|
52
①口口口 |①---|
口②口口 |②---|
口口③口 |③---|
口口口④ |④---|
53
口口口口 |①---|
口口口口 |②---|
③口口④ |③---|
口①②口 |④---|
54
口口口口 |①---|
口①①口 |----|
②口口② |②---|
口口口口 |----|
55
口①口口 |①---|
口②口口 |②---|
口口③口 |③---|
口口④口 |④---|
56
口口④口 |①---|
口口③口 |②---|
口②口口 |③---|
口①口口 |④---|
57
①口口口 |①---|
②口口口 |②---|
口口口③ |③---|
口口口④ |④---|
58
口口口④ |①---|
口口口③ |②---|
②口口口 |③---|
①口口口 |④---|
59
①口口口 |①---|
口②口口 |②---|
口口③口 |③---|
口口口④ |④---|
60
口口口① |①---|
口口②口 |②---|
口③口口 |③---|
④口口口 |④---|
61
口口口口 |①---|
口口口口 |②---|
④口口③ |③---|
口②①口 |④---|
62
口①①口 |①---|
口②②口 |②---|
口③③口 |③---|
口④④口 |④---|
63
口口①① |①---|
口口②② |----|
口口口口 |②---|
口口口口 |----|
64
口口口口 |①---|
口口口口 |----|
口口①① |----|
口口口口 |----|
65
①①口口 |①---|
②②口口 |----|
口口口口 |②---|
口口口口 |----|
66
口口口口 |①---|
口口口口 |----|
①①口口 |②---|
②②口口 |----|
67
口口①① |①---|
口口②② |----|
口口口口 |②---|
口口口口 |----|
68
口口口口 |①---|
口口口口 |----|
口口①① |②---|
口口②② |----|
69
①①口口 |①---|
②②口口 |----|
口口口口 |②---|
口口口口 |----|
70
口口口口 |①---|
口口口口 |----|
①①口口 |②---|
②②口口 |----|
71
口口口口 |①---|
口①①口 |----|
口②②口 |②---|
口口口口 |----|
72
①口口① |①---|
②口口② |②---|
③口口③ |③---|
④口口④ |④---|
73
口口口口 |----|
口①①口 |①---|
口①①口 |----|
口口口口 |----|
74
口口口口 |----|
口口口口 |----|
口口口口 |----|
口口口口 |----|
75
口口②② |----|
口口口口 |----|
口①口口 |--①-|
口口口口 |②---|

不確定度: 0

最終更新:2014年07月27日 02:32