デッドボヲルdeホームラン
猫叉Masterβ2

ADVANCED

Level: 7
BPM: 145
Notes: 489

1
口口口口 |----|
口口口口 |----|
口口口口 |----|
口口口口 |----|
2
口口口① |①---|
口口口口 |----|
口口口口
口口口口

②口口②
口口口口
口口口口 |----|
口口口口 |--②-|
3
口①①口 |--①-|
口②②口 |--②-|
口③③口 |--③-|
口④④口 |--④-|
4
①口口② |①-②-|
③③口④ |③-④-|
⑤口口⑥ |⑤-⑥-|
⑦⑦口⑧ |⑦-⑧-|
5
①口口② |①-②-|
③③口④ |③-④-|
⑤口口⑥ |⑤-⑥-|
⑦⑦口⑧ |⑦-⑧-|
6
①口口② |①-②-|
③③口④ |③-④-|
⑤口口⑥ |⑤-⑥-|
⑦⑦口⑧ |⑦-⑧-|
7
①口口④ |①-②-|
④③口口 |--③-|
口②③口 |--④-|
⑤口②口 |--⑤-|
8
口口口③ |①---|
③口①① |②---|
口口口口 |--③-|
④②②口 |--④-|
9
口口口③ |①---|
③口①① |②---|
口口口口 |--③-|
④②②口 |--④-|
10
口口口③ |①---|
③口①① |②---|
口口口口 |--③-|
④②②口 |--④-|
11
口口①口 |①-②-|
口②⑤⑤ |③-④-|
⑥⑥③口 |⑤-⑥-|
口④⑦⑦ |⑦---|
12
口口口① |①-②-|
口④口口 |③-④-|
口口口③
②口口口

⑤口口⑦
口口口口
口⑥⑧口 |⑤-⑥-|
口口口口 |⑦-⑧-|
13
口⑤⑥口 |①-②-|
口口口口 |③-④-|
①⑦⑧口 |⑤-⑥-|
口②③④ |⑦-⑧-|
14
口口口① |①-②-|
口④口口 |③-④-|
口口口③
②口口口

⑤口口⑦
口口口口
口⑥⑧口 |⑤-⑥-|
口口口口 |⑦-⑧-|
15
④③②口 |①-②-|
⑧⑦⑥⑤ |③-④-|
口口口口 |⑤-⑥-|
①口口口 |⑦-⑧-|
16
口口口① |①-②-|
口④口口 |③-④-|
口口口③
②口口口

⑤口⑦⑦
口口口口
⑥⑥⑧⑧ |⑤-⑥-|
口口口口 |⑦-⑧-|
17
口⑤⑥口 |①-②-|
①①口口 |③-④-|
口⑦⑧口 |⑤-⑥-|
口②③④ |⑦-⑧-|
18
口口口① |①-②-|
口④口口 |③-④-|
口口口③
②口口口

⑤口口⑦
口口口口
口⑥⑧口 |⑤-⑥-|
口口口口 |⑦-⑧-|
19
④③②口 |①-②-|
⑧⑦⑥⑤ |③-④-|
口口口口 |⑤-⑥-|
①口口口 |⑦-⑧-|
20
口④③② |①---|
口口口口 |----|
口①①口 |--②-|
口口口口 |③-④-|
21
①口口口 |①-②-|
口⑤⑥② |③-④-|
③⑦⑧④ |⑤-⑥-|
口口口口 |⑦-⑧-|
22
口②③④ |①---|
口口口口 |----|
口口口口 |--②-|
口①口口 |③-④-|
23
口口口口 |①-②-|
①③⑤⑦ |③-④-|
口口口口 |⑤-⑥-|
⑧⑥④② |⑦-⑧-|
24
口④③② |①---|
口口口口 |----|
口口口① |--②-|
口口口口 |③-④-|
25
①口口口 |①-②-|
④⑥⑤③ |③-④-|
②⑧⑦口 |⑤-⑥-|
口口口口 |⑦-⑧-|
26
口口口口 |①---|
口口口口 |----|
口口口口 |----|
②口①口 |--②-|
27
③③①① |①-②-|
⑦⑦⑤⑤ |③-④-|
④④②② |⑤-⑥-|
口口⑥⑥ |⑦---|
28
口口口① |①-②-|
口④口口 |③-④-|
口口口③
②口口口

⑤口口⑦
口口口口
口⑥⑧口 |⑤-⑥-|
口口口口 |⑦-⑧-|
29
口⑤⑥口 |①-②-|
口口口口 |③-④-|
①⑦⑧口 |⑤-⑥-|
口②③④ |⑦-⑧-|
30
口口口① |①-②-|
口④口口 |③-④-|
口口口③
②口口口

⑤口口⑦
口口口口
口⑥⑧口 |⑤-⑥-|
口口口口 |⑦-⑧-|
31
④③②口 |①-②-|
⑧⑦⑥⑤ |③-④-|
口口口口 |⑤-⑥-|
①口口口 |⑦-⑧-|
32
口⑤③① |①-②-|
⑦⑦口口 |③-④-|
口口⑥⑥ |⑤----⑥|
口口④② |--⑦-|
33
口⑤③① |①-②-|
⑦⑦口口 |③-④-|
口口⑥⑥ |⑤----⑥|
口口④② |--⑦-|
34
①⑤⑤① |---①--|
③口口③ |--②---|
②口口② |③----④|
④口口④ |---⑤--|
35
口口口口 |--①---|
④②②⑤ |②----③|
口①①口 |--④-|
⑥③③口 |⑤-⑥-|
36
口口口口 |①---|
口口口口 |----|
口①①口 |----|
②口口② |--②---|
37
口口口口 |①---|
口①①口 |②---|
口②②口
口口口口

⑥口口⑥
口⑤④③
口口口口 |③-④-|
口口口口 |⑤-⑥---|
38
口口口口 |①---|
口口口口 |----|
口口口口
①口口①

口口口口
口口口口
口口口口 |----|
②口口② |--②---|
39
口口口③ |①---|
④①①⑤ |②---|
⑥②②⑦ |③-④-⑤-|
⑧口口口 |⑥-⑦-⑧-|
40
口口口口 |①---|
口口口口 |----|
口口口口 |----|
②①①② |--②---|
41
口口口口 |①---|
口①①口 |②---|
口②②口
口口口口

⑥口口⑥
口⑤④③
口口口口 |③-④-|
口口口口 |⑤-⑥---|
42
口口口口 |①---|
口口口口 |----|
口口口口
①口口①

口口口口
口口口口
口口口口 |----|
②口口② |--②---|
43
口口口口 |①---|
④①①④ |②---|
口②②口 |--③-|
口③③口 |--④---|
44
①①①① |①---|
口口口口 |②-③-|
②口口③ |----|
口口口口 |----|
45
口口口口 |----|
口③②① |①-②-|
口口口口 |③--④|
口⑤口④ |--⑤-|
46
②口口口 |①---|
口口口口 |--②-|
口口①口 |----|
口口口口 |----|
47
口⑤口口 |--①-|
①②③④ |②-③-|
口口口口 |④---|
口口口口 |⑤---|
48
口口口② |--①-|
④⑤口口 |②-③-|
口⑦⑥口 |--④-|
①口③口 |⑤-⑥⑦|
49
口①⑤口 |--①---|
口③口② |②-③-|
④口口口 |-④-⑤|
口口口口 |----|
50
口⑧⑦口 |①-②-|
口⑥⑤口 |③-④-|
口④③口 |⑤-⑥-|
口②①口 |⑦-⑧-|
51
口口口① |①-②-|
②④⑤口 |③-④⑤|
口口口③ |----|
口口口口 |----|
52
①口③① |--①-|
②④口② |--②-|
口口⑤口 |③-④-|
口⑥口口 |⑤-⑥-|
53
⑤①口口 |①-②-|
口口②口 |③-④-|
口③⑦⑥ |⑤-⑥⑦|
⑧口④口 |-⑧--|
54
②口口② |①---|
口①①口 |--②-|
口口口口
口口口口

口口口口
口口③口
口④口口 |--③-|
口口⑤口 |④-⑤-|
55
⑦口口⑧ |①-②-|
⑤口口⑥ |③-④-|
③口口④ |⑤-⑥-|
①口口② |⑦-⑧-|
56
口④⑧口 |①-②-|
口③⑦口 |③-④-|
口②⑥口 |⑤-⑥-|
口①⑤口 |⑦-⑧-|
57
④口口⑧ |①-②-|
③口口⑦ |③-④-|
②口口⑥ |⑤-⑥-|
①口口⑤ |⑦-⑧-|
58
①①⑤⑤ |①-②-|
②②⑥⑥ |③-④-|
③③⑦⑦ |⑤-⑥-|
④④⑧⑧ |⑦-⑧-|
59
①口口口 |①---|
口口口② |②-③④|
口③④口 |----|
口口口口 |----|
60
①③③① |①----②|
⑤口口⑤ |---③--|
⑥口口⑥ |--④---|
②④④② |⑤----⑥|
61
③⑤⑤③ |---①--|
口①①口 |--②---|
口②②口 |③----④|
④口口④ |---⑤--|
62
口口口口 |--①---|
②④④② |②----③|
③⑤⑤③ |---④--|
口①①口 |--⑤---|
63
①口口① |①---|
②口口② |②---|
③口口③ |③---|
④口口④ |④---|
64
①①①① |①---|
②②②② |②---|
③③③③ |③---|
④④④④ |④---|
65
口口口① |----|
口口口口 |----|
口口口口 |①---|
口口口口 |----|

不確定度: 0

最終更新:2014年07月27日 02:31