轟け!恋のビーンボール!!
ダイナミック野球兄弟 v.s. クロスファイヤーPrim

ADVANCED

Level: 7
BPM: 180
Notes: 523

1
口口口口 |----|
口口口口 |----|
口口口口 |----|
口口口口 |----|
2
口口口口 |----|
口口口口 |----|
口①①口 |----|
口口口口 |①---|
3
口口口口 |①---|
口①①口 |②-③-④-|
⑤⑥⑥④ |⑤---|
③口口② |⑥---|
4
③口口② |①---|
⑤①①④ |②-③-④-|
口⑥⑥口 |⑤---|
口口口口 |⑥---|
5
③口口② |①---|
④①①口 |----②-|
口口口口 |③---|
口口口口 |④---|
6
口口口口 |①---|
口口口口 |②---|
①口口口 |③---|
③口口② |----|
7
③④②① |①---|
口口口口 |②---|
口口口口 |③---|
口口口口 |④---|
8
口口口口 |①---|
口①①⑥ |②-③-④-|
③口口② |⑤---|
⑤口口④ |⑥---|
9
②口口① |①---|
口④③口 |②---|
口口口口 |③---|
口口口口 |④---|
10
口口口① |①---|
口④④口 |②---|
③口口③ |③---|
口②②口 |④---|
11
①①①① |①---|
②口口② |----|
口口口口 |②---|
口口口口 |----|
12
口口口口 |①---|
口口口口 |----|
①口口① |②---|
口②②口 |----|
13
口口口口 |①---|
④③②① |②---|
口口口口 |③---|
口口口口 |④---|
14
口口口口 |①---|
口口口口 |②---|
④③②① |③---|
口口口口 |④---|
15
口口口口 |①-②-|
⑧口口⑦ |③-④-|
⑥口口⑤ |⑤-⑥-|
④②①③ |⑦-⑧-|
16
②④③① |①-②-|
口⑥⑤口 |③-④-|
口⑥⑤口 |⑤---|
口口口口 |⑥---|
17
口口口口 |①-②-|
⑧口口⑦ |③-④-|
⑥口口⑤ |⑤-⑥-|
④②①③ |⑦-⑧-|
18
④口口③ |--①-|
口口口口 |②-③-|
口②①口 |④---|
口口口⑤ |⑤---|
19
口口口口 |①---|
口口口① |--②-|
口③口口 |③---|
口②④口 |--④-|
20
口口⑤口 |①---|
②③④⑥ |--②③|
口口①口 |④---|
口口口口 |⑤-⑥-|
21
口口口口 |①---|
⑤③口口 |②---|
②口③① |③---|
④②口口 |④-⑤-|
22
①口②③ |①---|
口④口② |②---|
口口口口 |③---|
口口口口 |④---|
23
口口口口 |①---|
口口口口 |--②-|
口口①口 |③---|
③口口② |----|
24
⑧口口口 |①--②|
⑦口①口 |③-④-|
⑥②③口 |⑤-⑥-|
④口口⑤ |⑦-⑧-|
25
口口①① |①---|
口②③③ |--②-|
④口口口 |③---|
口口口口 |--④-|
26
④口口口 |①-②-|
口③口口 |③-④-|
口口②口 |----|
⑤口口① |⑤---|
27
口口口口 |①---|
①口口口 |--②-|
④口③口 |③---|
口口②口 |④---|
28
口⑤口口 |①---|
⑥④③② |--②③|
口①口口 |④---|
口口口口 |⑤-⑥-|
29
⑤口口口 |①---|
⑤口④口 |②---|
①⑥②③ |③-④-|
口口口③ |⑤-⑥-|
30
④③①① |①---|
口口口② |②---|
③口口口 |③---|
口口②口 |④---|
31
口口③④ |①---|
①口④③ |②---|
口②口口 |③---|
口口口口 |④---|
32
⑧口口口 |①--②|
⑥⑦口口 |③-④-|
③④⑤② |⑤-⑥-|
①口口口 |⑦-⑧-|
33
口口②① |①---|
口口②① |--②-|
④口②口 |③---|
③口口口 |④---|
34
①①口口 |①-②-|
②口口口 |③-④-|
口③口⑥ |----|
④④口⑤ |⑤-⑥-|
35
口口③口 |①---|
口①①③ |②---|
④②②口 |③---|
口④口口 |④---|
36
口口⑤口 |①---②-|
④口口口 |③---④-|
口口口③ |⑤---|
②口口① |----|
37
④口口③ |①---|
④①①③ |②---|
④②②③ |③---|
口口口口 |④---|
38
口④⑤口 |①---②-|
口口口口 |③---④-|
口口③口 |⑤---|
②口口① |----|
39
③③口口 |①---|
口①①口 |②---|
口②②口 |③---|
口口④④ |④---|
40
口⑤口口 |①---②-|
口口口④ |③---④-|
③口口② |⑤---|
①口口口 |----|
41
口口口口 |①---|
④①①③ |②---|
④②②③ |③---|
口口口口 |④---|
42
口口⑤口 |①---②-|
口④口口 |③---④-|
口口③口 |⑤---|
②口口① |----|
43
口①口③ |①---|
①④口口 |②---|
口②⑤口 |③---|
②口口口 |④-⑤-|
44
口口口口 |①---|
口口口口 |--②-|
⑤②口口 |③---|
④①③口 |--④⑤|
45
口口口口 |①---|
①⑤口④ |--②③|
口口口③ |④---|
口口口② |⑤---|
46
口口①① |①---|
口口口口 |--②-|
口口②口 |③---|
③③口口 |----|
47
口口⑥② |①-②-|
口口③⑥ |③-④-|
口④口① |⑤---|
⑤口口口 |⑥---|
48
②⑥口口 |①-②-|
⑥③口口 |③-④-|
①口④口 |⑤---|
口口口⑤ |⑥---|
49
口⑧①口 |①-②-|
⑦口口② |③-④-|
⑥口口③ |⑤-⑥-|
口⑤④口 |⑦-⑧-|
50
口⑧①口 |①-②-|
⑦口口② |③-④-|
⑥口口③ |⑤-⑥-|
口⑤④口 |⑦-⑧-|
51
口口口口 |①-②-|
④②①③ |----|
④②①③ |③-④-|
口口口口 |----|
52
口③③口 |①-②-|
口①①口 |----|
口②②口 |③-④-|
口④④口 |----|
53
②口口⑦ |①-②-|
④口口⑤ |③-④-|
⑥口口③ |⑤-⑥-|
⑧口口① |⑦-⑧-|
54
⑤③①口 |①-②-|
⑦口口口 |③-④-|
口口口⑧ |⑤-⑥-|
口②④⑥ |⑦-⑧-|
55
口口口口 |①---|
口③口② |--②-|
①口②口 |③---|
口①④口 |--④-|
56
口③口口 |①-②-|
③口②④ |③-④-|
⑤①④口 |⑤---|
口⑤口口 |----|
57
口口口口 |①---|
口①口口 |--②-|
口①口口 |③---|
④口③② |④---|
58
口⑥⑤⑤ |①-②-|
⑦④③③ |③-④-|
②口①① |⑤---|
口口口口 |⑥-⑦-|
59
口口④口 |①---|
口③口⑤ |--②-|
口①⑥口 |③-④-|
口口口② |⑤-⑥-|
60
口口口口 |①-②-|
口口口口 |③-④-|
①口口口 |⑤---|
②③④⑤ |----|
61
口口口口 |①---|
⑥口口⑦ |②-③-|
④①①⑤ |④-⑤-|
②②口③ |⑥-⑦-|
62
①口口口 |①---|
口②口口 |②---|
口口③口 |③---|
口口口④ |④---|
63
口口口口 |①---|
口③口② |--②-|
①口②口 |③---|
口①④口 |--④-|
64
口③⑦⑥ |①-②-|
③口②④ |③-④-|
⑤①④口 |⑤---|
口⑤口口 |⑥-⑦-|
65
口口口口 |①---|
口①③口 |--②-|
口④②⑥ |③-④-|
口口⑤口 |⑤-⑥-|
66
①口口口 |①---|
口④③② |--②③|
口口口口 |④---|
口口口口 |----|
67
①⑥口口 |①---|
①⑤口口 |--②-|
①口④口 |③-④-|
口③口② |⑤-⑥-|
68
口⑥①① |①---|
口⑤①① |--②-|
口口④口 |③-④-|
②口③口 |⑤-⑥-|
69
⑧口⑦口 |①-②-|
⑥口⑤口 |③-④-|
口④口③ |⑤-⑥-|
口②口① |⑦-⑧-|
70
口②口① |①---|
②口③① |----|
口③口口 |②---|
口口口口 |③---|
71
口口口口 |①---|
口④③口 |----|
②口⑤① |②---|
口②①口 |③-④-⑤-|
72
口③②口 |①---|
③④④② |②---|
口①⑤口 |③---|
口口口口 |④---⑤-|
73
口口②口 |①---|
口口口③ |----②-|
口①口④ |③---|
口口口口 |④---|
74
口口口口 |①---|
口⑤口口 |②---|
口口④口 |③---|
②③口① |④-⑤-|
75
口②①口 |①---|
口口口③ |--②-|
口口口④ |③-④-|
口⑥⑤口 |⑤-⑥-|
76
口口口① |①---|
口②⑤口 |--②-|
口④③口 |③---|
口口口口 |④-⑤-|
77
口①口口 |①---|
口口口口 |----②-|
口④④口 |③---|
口③②口 |④---|
78
①①①① |①---|
口④③② |②---|
口口口口 |③---|
口口口口 |④---|
79
口口口口 |①---|
①口口口 |②-③-|
口③②④ |④---|
⑤口口口 |⑤---|
80
④②①③ |①-②-|
⑥口口⑤ |③-④-|
⑧口口⑦ |⑤-⑥-|
口口口口 |⑦-⑧-|
81
口口口口 |①-②-|
口⑧⑦口 |③-④-|
口⑥⑤口 |⑤-⑥-|
②④③① |⑦-⑧-|
82
③④②① |①-②-|
⑧⑧⑧⑧ |③-④-|
⑦⑤⑤⑦ |⑤-⑥-|
口⑥⑥口 |⑦-⑧-|

不確定度: 0

最終更新:2014年07月27日 02:30