せーのっ!(DJ UTO REMIX)
情報処理部(大久保瑠美、津田美波、種田梨沙)

BASIC

Level: 4
BPM: 174
Notes: 275

1
口口口口 |----|
口口口口 |----|
口口口口 |----|
口口口口 |----|
2
口口口口 |----|
①口口① |----|
口口口口 |①---|
口口口口 |----|
3
①②③④ |①---|
口口口口 |②---|
口口口口 |③---|
口口口口 |④---|
4
口口口口 |①---|
④③②① |②---|
口口口口 |③---|
口口口口 |④---|
5
口口口口 |①---|
口口口口 |②---|
①②③④ |③---|
口口口口 |④---|
6
口口口口 |①---|
口口口口 |②---|
口口口口 |③---|
④③②① |④---|
7
口口口口 |①---|
口④③口 |②---|
口①②口 |③---|
口口口口 |④---|
8
口口口口 |①---|
口④③口 |②---|
口①②口 |③---|
口口口口 |④---|
9
口口口口 |①---|
口口口口 |②---|
①口口④ |③---|
口②③口 |④---|
10
口口口口 |①---|
③口口③ |②---|
口②①口 |③---|
口口口口 |----|
11
口口口口 |①---|
口口口口 |----|
口①①口 |----|
口口口口 |----|
12
口口口口 |----|
口口口口 |----|
口口口口 |----|
口口口口 |----|
13
口口口口 |①---|
口①①口 |----|
口口口口 |----|
口口口口 |----|
14
①口口① |①---|
②口口② |----|
口口口口 |②---|
口口口口 |----|
15
口口口口 |①---|
口口口口 |----|
口①①口 |----|
口口口口 |----|
16
口口口口 |----|
口口口口 |----|
口口口口 |----|
口口口口 |----|
17
口口口口 |①---|
口①①口 |----|
口口口口 |----|
口口口口 |----|
18
①口口① |①---|
②口口② |----|
口口口口 |②---|
口口口口 |----|
19
口口口口 |①---|
口口口口 |----|
口①口口 |----|
口口口口 |----|
20
口口口口 |①---|
口口①口 |----|
口口口口 |----|
口口口口 |----|
21
口口口口 |①---|
口口口口 |----|
口②①口 |②---|
口口口口 |----|
22
口口口口 |①---|
口①②口 |----|
口口口口 |②---|
口口口口 |----|
23
口口口口 |①---|
口口口口 |----|
口①①口 |----|
口口口口 |----|
24
口口口口 |----|
口口口口 |----|
口口口口 |----|
口口口口 |----|
25
口口口口 |①---|
口①①口 |----|
口口口口 |----|
口口口口 |----|
26
①口口① |①---|
②口口② |----|
口口口口 |②---|
口口口口 |----|
27
口口口口 |①---|
口①①口 |----|
口①①口 |----|
口口口口 |----|
28
口口口口 |①---|
口口①口 |----|
口口口口 |----|
口口口口 |----|
29
口口口口 |①---|
口①口口 |----|
口口口口 |----|
口口口口 |----|
30
口①①口 |①---|
口口口口 |----|
口口口口 |----|
口口口口 |----|
31
口口口口 |①---|
口口①口 |----|
口口口口 |----|
口口口口 |----|
32
口口口口 |①---|
口①口口 |----|
口口口口 |----|
口口口口 |----|
33
口口口口 |①---|
口口①口 |----|
口口口口 |----|
口口口口 |----|
34
口①①口 |①---|
口口口口 |----|
口口口口 |----|
口口口口 |----|
35
口口口口 |①---|
口①①口 |----|
口①①口 |----|
口口口口 |----|
36
口②②口 |①---|
口①①口 |----|
口口口口 |②---|
口口口口 |----|
37
口口口口 |①---|
①口口① |----|
口口口口 |----|
口口口口 |----|
38
口②②口 |①---|
口①①口 |----|
口口口口 |②---|
口口口口 |----|
39
口口口口 |①---|
①口口① |----|
口口口口 |----|
口口口口 |----|
40
口②②口 |①---|
口①①口 |----|
口口口口 |②---|
口口口口 |----|
41
口口口口 |①---|
①口口① |----|
口口口口 |----|
口口口口 |----|
42
口②②口 |①---|
口①①口 |----|
口口口口 |②---|
口口口口 |----|
43
口口口口 |①---|
①①口口 |----|
口口口口 |----|
口口口口 |----|
44
口口口口 |①---|
口口①① |----|
口口口口 |----|
口口口口 |----|
45
口口口口 |①---|
口②②口 |----|
口①①口 |②---|
口口口口 |----|
46
②①①② |①---|
口口口口 |----|
口口口口 |②---|
口口口口 |----|
47
口口口口 |----|
①①①① |----|
口口口口 |①---|
口口口口 |----|
48
口口口口 |①---|
口口口口 |②---|
①口口④ |③---|
口②③口 |④---|
49
口口口口 |①---|
④口口① |②---|
口③②口 |③---|
口口口口 |④---|
50
①口口④ |①---|
口②③口 |②---|
口口口口 |③---|
口口口口 |④---|
51
②口口② |①---|
①口口① |----|
口口口口 |②---|
口口口口 |----|
52
口口口口 |①---|
口口口口 |②---|
④口口① |③---|
口③②口 |④---|
53
口口口口 |①---|
①口口④ |②---|
口②③口 |③---|
口口口口 |④---|
54
④口口① |①---|
口③②口 |②---|
口口口口 |③---|
口口口口 |④---|
55
②口口② |①---|
①口口① |----|
口口口口 |②---|
口口口口 |----|
56
口口①口 |①---|
口①口口 |----|
口口口口 |----|
口口口口 |----|
57
口①口口 |①---|
口口①口 |----|
口口口口 |----|
口口口口 |----|
58
口口口口 |①---|
口②②口 |----|
口①①口 |②---|
口口口口 |----|
59
②①①② |①---|
口口口口 |----|
口口口口 |②---|
口口口口 |----|
60
口口口口 |①---|
口口口口 |②---|
①口口④ |③---|
口②③口 |④---|
61
口口口口 |①---|
④口口① |②---|
口③②口 |③---|
口口口口 |④---|
62
①口口④ |①---|
口②③口 |②---|
口口口口 |③---|
口口口口 |④---|
63
②口口② |①---|
①口口① |----|
口口口口 |②---|
口口口口 |----|
64
口口口口 |①---|
①口③口 |②---|
口②口④ |③---|
口口口口 |④---|
65
口口口口 |①---|
口口口口 |②---|
④口②口 |③---|
口③口① |④---|
66
口口口口 |①---|
①口③口 |②---|
口②口④ |③---|
口口口口 |④---|
67
②口口② |①---|
①口口① |----|
口口口口 |②---|
口口口口 |----|
68
口口口口 |①---|
口③口① |②---|
④口②口 |③---|
口口口口 |④---|
69
口口口口 |①---|
口口口口 |②---|
口②口④ |③---|
①口③口 |④---|
70
口口口口 |①---|
口③口① |②---|
④口②口 |③---|
口口口口 |④---|
71
②口口② |①---|
①口口① |----|
口口口口 |②---|
口口口口 |----|
72
口口①口 |①---|
口①口口 |----|
口口口口 |----|
口口口口 |----|
73
口①口口 |①---|
口口①口 |----|
口口口口 |----|
口口口口 |----|
74
口口口口 |①---|
口②②口 |----|
口①①口 |②---|
口口口口 |----|
75
②①①② |①---|
口口口口 |----|
口口口口 |②---|
口口口口 |----|
76
口口口口 |①---|
①口③口 |②---|
口②口④ |③---|
口口口口 |④---|
77
口口口口 |①---|
口口口口 |②---|
④口②口 |③---|
口③口① |④---|
78
口口口口 |①---|
①口③口 |②---|
口②口④ |③---|
口口口口 |④---|
79
②口口② |①---|
①口口① |----|
口口口口 |②---|
口口口口 |----|
80
口口口口 |①---|
口口②② |----|
口①①口 |②---|
口口口口 |----|
81
口口口口 |①---|
②②口口 |----|
口①①口 |②---|
口口口口 |----|
82
口口口口 |①---|
口口②② |----|
口①①口 |②---|
口口口口 |----|
83
口口口口 |①---|
②②口口 |----|
口①①口 |②---|
口口口口 |----|
84
口口口② |①---|
口口口② |----|
口①①口 |②---|
口口口口 |----|
85
②口口口 |①---|
②口口口 |----|
口①①口 |②---|
口口口口 |----|
86
口口口② |①---|
口口口② |----|
口①①口 |②---|
口口口口 |----|
87
②口口口 |①---|
②口口口 |----|
口①①口 |②---|
口口口口 |----|
88
口口口口 |①---|
口①①口 |----|
口①①口 |----|
口口口口 |----|

不確定度: 0

最終更新:2014年05月21日 23:33