せーのっ!(DJ UTO REMIX)
情報処理部(大久保瑠美、津田美波、種田梨沙)

ADVANCED

Level: 7
BPM: 174
Notes: 530

1
口口口口 |----|
口口口口 |----|
口口口口 |----|
口口口口 |----|
2
①口口② |----|
口口口口 |----|
口口口口 |①---|
口口口口 |②---|
3
④③③⑤ |①---|
④②②⑤ |②---|
口①①口 |③-④-|
口口口口 |⑤---|
4
⑤③③④ |①---|
⑤②②④ |②---|
口①①口 |③-④-|
口口口口 |⑤---|
5
口③③④ |①---|
④②②口 |②---|
口①①口 |③---|
口口口口 |④---|
6
④③③口 |①---|
口②②④ |②---|
口①①口 |③---|
口口口口 |④---|
7
④③③⑤ |①---|
④②②⑤ |②---|
口①①口 |③-④-|
口口口口 |⑤---|
8
⑤③③④ |①---|
⑤②②④ |②---|
口①①口 |③-④-|
口口口口 |⑤---|
9
口③③④ |①---|
④②②口 |②---|
口①①口 |③---|
口口口口 |④---|
10
③口口④ |①---|
④②②③ |②---|
口①①口 |③---|
口口口口 |④---|
11
②口③口 |①---|
口口口口 |--②-|
④①①口 |--③-|
口口口口 |--④-|
12
口口口口 |--①-|
④口口③ |②---|
口②①口 |③---|
口口口口 |④---|
13
①口口① |①---|
口口口口 |--②-|
④②②④ |--③-|
口③③口 |--④-|
14
口①②口 |--①-|
口③④口 |②-③-|
口口口口 |④---|
口口口口 |----|
15
口③口② |①---|
口口口口 |--②-|
口①①④ |--③-|
口口口口 |--④-|
16
口口口口 |--①-|
③口口④ |②---|
口①②口 |③---|
口口口口 |④---|
17
①口口① |①---|
口口口口 |--②-|
④②②④ |--③-|
口③③口 |--④-|
18
口②①口 |--①-|
口④③口 |②-③-|
⑤口口⑤ |④---|
口口口口 |⑤---|
19
①口口① |①---|
口②③口 |②-③-|
口口口口
口口口口

⑤口口⑤
口口口口
口口口口 |--④-|
口④口口 |--⑤-|
20
口口口口 |--①-|
口③②口 |②-③-|
口①④口 |④---|
口⑤⑥口 |⑤-⑥-|
21
口②口口 |①---|
③口口口 |②-③-|
口⑤⑤① |--④-|
口④④口 |--⑤-|
22
④口口① |--①-|
口③②口 |②-③-|
口口口口 |④---|
口口口口 |----|
23
②口③口 |①---|
口口口口 |--②-|
④①①口 |--③-|
口口口口 |--④-|
24
口口口口 |--①-|
④口口③ |②---|
口②①口 |③---|
口口口口 |④---|
25
①口口① |①---|
口口口口 |--②-|
④②②④ |--③-|
口③③口 |--④-|
26
口①②口 |--①-|
口③④口 |②-③-|
口口口口 |④---|
口口口口 |----|
27
①①①① |①---|
口口③口 |----|
口②口口 |--②-|
口口口口 |③---|
28
口口口口 |①---|
口③口口 |----|
口口②口 |--②-|
①口口口 |③---|
29
口口③口 |①---|
口②口口 |----|
口口口口 |--②-|
口口口① |③---|
30
口③口口 |①---|
口口②口 |----|
口口口口 |--②-|
①口口口 |③---|
31
口口口口 |①---|
口口③口 |----|
口②口口 |--②-|
口口口① |③---|
32
口口口口 |①---|
口③口口 |----|
口口②口 |--②-|
①口口口 |③---|
33
口口③口 |①---|
口②口口 |----|
口口口口 |--②-|
口口口① |③---|
34
口③口口 |①---|
口口②口 |----|
口口口口 |--②-|
①口口口 |③---|
35
口口口口 |①---|
口口④口 |②---|
口③口口 |--③-|
②②①① |④---|
36
口口口口 |①---|
口④口口 |②---|
口口③口 |--③-|
①①②② |④---|
37
口口④口 |①---|
口③口口 |②---|
口口口口 |--③-|
②②①① |④---|
38
口④口口 |①---|
口口③口 |②---|
口口口口 |--③-|
①①②② |④---|
39
口口口口 |①---|
口口④口 |②---|
口③口口 |--③-|
②②①① |④---|
40
口口口口 |①---|
口④口口 |②---|
口口③口 |--③-|
①①②② |④---|
41
口口④口 |①---|
口③口口 |②---|
口口口口 |--③-|
②②①① |④---|
42
口④口口 |①---|
口口③口 |②---|
口口口口 |--③-|
①①②② |④---|
43
口④口口 |①---|
口口③口 |②---|
口口口口 |--③-|
①②②① |④---|
44
口口④口 |①---|
口③口口 |②---|
口口口口 |--③-|
①②②① |④---|
45
口口口口 |①---|
口口口口 |----|
②口口② |②---|
①口口① |----|
46
口④④口 |①---|
口③③口 |②---|
口②②口 |③---|
口①①口 |④---|
47
①口口② |----|
②口口① |----|
口口口口 |①---|
口口口口 |②---|
48
②口③口 |①---|
口口口口 |--②-|
④①①口 |--③-|
口口口口 |--④-|
49
口口口口 |--①-|
④口口③ |②---|
口②①口 |③---|
口口口口 |④---|
50
①口口① |①---|
口口口口 |--②-|
④②②④ |--③-|
口③③口 |--④-|
51
口①②口 |--①-|
口③④口 |②-③-|
口口口口 |④---|
口口口口 |----|
52
口③口② |①---|
口口口口 |--②-|
口①①④ |--③-|
口口口口 |--④-|
53
口口口口 |--①-|
③口口④ |②---|
口①②口 |③---|
口口口口 |④---|
54
①口口① |①---|
口口口口 |--②-|
④②②④ |--③-|
口③③口 |--④-|
55
口②①口 |--①-|
口④③口 |②-③-|
⑤口口⑤ |④---|
口口口口 |⑤---|
56
①口口① |①---|
口②③口 |②-③-|
口口口口
口口口口

⑤口口⑤
口口口口
口口口口 |--④-|
口④口口 |--⑤-|
57
口口口口 |--①-|
口③②口 |②-③-|
口①④口 |④---|
口⑤⑥口 |⑤-⑥-|
58
口②口口 |①---|
③口口口 |②-③-|
口⑤⑤① |--④-|
口④④口 |--⑤-|
59
④口口① |--①-|
口③②口 |②-③-|
口口口口 |④---|
口口口口 |----|
60
②口③口 |①---|
口口口口 |--②-|
④①①口 |--③-|
口口口口 |--④-|
61
口口口口 |--①-|
④口口③ |②---|
口②①口 |③---|
口口口口 |④---|
62
①口口① |①---|
口口口口 |--②-|
④②②④ |--③-|
口③③口 |--④-|
63
⑤①②口 |--①-|
口③④⑤ |②-③-|
口口口口 |④---|
口口口口 |⑤---|
64
口③口② |①---|
口口口口 |--②-|
口①①④ |--③-|
口口口口 |--④-|
65
口口口口 |--①-|
③口口④ |②---|
口①②口 |③---|
口口口口 |④---|
66
①口口① |①---|
口口口口 |--②-|
④②②④ |--③-|
口③③口 |--④-|
67
②②①① |--①-|
④④③③ |②-③-|
口口口口 |④---|
口口口口 |----|
68
②口③口 |①---|
口口口口 |--②-|
④①①口 |--③-|
口口口口 |--④-|
69
口口口口 |--①-|
④口口③ |②---|
口②①口 |③---|
口口口口 |④---|
70
①口口① |①---|
口口口口 |--②-|
④②②④ |--③-|
口③③口 |--④-|
71
①①②② |--①-|
③③④④ |②-③-|
⑤口口⑤ |④---|
口口口口 |⑤---|
72
①口口① |①---|
口③②口 |②-③-|
口口口口
口口口口

⑤口口⑤
口口口口
口口口口 |--④-|
口口④口 |--⑤-|
73
口口口口 |--①-|
口②③口 |②-③-|
口④①口 |④---|
口⑥⑤口 |⑤-⑥-|
74
口口②口 |①---|
口口口③ |②-③-|
①⑤⑤口 |--④-|
口④④口 |--⑤-|
75
①①④④ |--①-|
③③②② |②-③-|
口口口口 |④---|
口口口口 |----|
76
口③口② |①---|
口口口口 |--②-|
口①①④ |--③-|
口口口口 |--④-|
77
口口口口 |--①-|
③口口④ |②---|
口①②口 |③---|
口口口口 |④---|
78
①口口① |①---|
口口口口 |--②-|
④②②④ |--③-|
口③③口 |--④-|
79
②②①① |--①-|
④④③③ |②-③-|
口口口口 |④---|
口口口口 |----|
80
②口口④ |①---|
④口口② |②---|
①口口③ |③---|
③口口① |④---|
81
②口口④ |①---|
④口口② |②---|
①口口③ |③---|
③口口① |④---|
82
②口口④ |①---|
④口口② |②---|
①口口③ |③---|
③口口① |④---|
83
②口口④ |①---|
④口口② |②---|
①口口③ |③---|
③口口① |④---|
84
口②④口 |①---|
④口口② |②---|
①口口③ |③---|
口③①口 |④---|
85
口②④口 |①---|
④口口② |②---|
①口口③ |③---|
口③①口 |④---|
86
口②④口 |①---|
④口口② |②---|
①口口③ |③---|
口③①口 |④---|
87
口②④口 |①---|
④口口② |②---|
①口口③ |③---|
口③①口 |④---|
88
口口口口 |①---|
口①①口 |----|
口①①口 |----|
口口口口 |----|

不確定度: 0

最終更新:2014年05月21日 23:33