せーのっ!(DJ UTO REMIX)
情報処理部(大久保瑠美、津田美波、種田梨沙)

EXTREME

Level: 10
BPM: 174
Notes: 948

1
口口口口 |----|
口口口口 |----|
口口口口 |----|
口口口口 |----|
2
②口②口 |----|
口口口口 |----|
口口口口 |①---|
口①口① |②---|
3
口口口⑥ |①-②③|
口⑤④① |④⑤-⑥|
口②③口
口口口口

⑧口口口
⑦口口⑨
口口口口 |-⑦⑧-|
口口口⑨ |⑨---|
4
⑨口⑨口 |①-②③|
⑥口口⑧ |④⑤-⑥|
①④⑤⑦ |-⑦⑧-|
口③②口 |⑨---|
5
口口口① |①-②③|
⑨②③⑩ |④⑤⑥⑦|
⑧⑤④口 |-⑧⑨-|
口⑥⑦⑪ |⑩-⑪-|
6
②③口⑧ |①-②③|
口口①口 |-④-⑤|
⑦⑤④⑧ |-⑥⑦-|
⑥④⑤口 |⑧---|
7
⑩⑦⑥⑨ |①-②③|
①④⑤⑧ |④⑤⑥⑦|
⑩③②口 |-⑧⑨-|
口口口口 |⑩---|
8
口④⑤口 |①-②③|
口⑤④⑧ |-④-⑤|
⑥口口① |-⑥⑦-|
⑦②③⑧ |⑧---|
9
①口口口 |①-②③|
⑩③②⑨ |④⑤⑥⑦|
口④⑤⑧ |-⑧⑨-|
⑪⑦⑥口 |⑩-⑪-|
10
口口③② |①-②③|
⑥①口⑦ |-④-⑤|
口⑤④口 |⑥---|
⑦④⑤⑥ |⑦---|
11
③①①③ |①---|
口①①口 |--②-|
口②④口 |--③-|
口④②口 |--④-|
12
口口③口 |--①-|
①③口② |②---|
②口④① |③---|
口④口口 |④---|
13
口①④口 |①---|
①④①④ |--②-|
③②③② |--③-|
口③②口 |--④-|
14
口①口口 |--①-|
口口②口 |②-③-|
口③口口 |④---|
口口④④ |----|
15
③口①③ |①---|
口①口口 |--②-|
口④②口 |--③-|
口②④口 |--④-|
16
口③口口 |--①-|
②口③① |②---|
①④口② |③---|
口口④口 |④---|
17
口④①口 |①---|
④①④① |--②-|
②③②③ |--③-|
口②③口 |--④-|
18
口口①口 |--①-|
口②口⑤ |②-③-|
口口③口 |④---|
④④口⑤ |⑤---|
19
①口口⑤ |①---|
口③②口 |②-③-|
①③②⑤ |--④-|
④口口④ |--⑤-|
20
口③④口 |--①-|
⑤④③⑥ |②-③-|
口①②口 |④---|
⑥②①⑤ |⑤-⑥-|
21
①⑤口① |①---|
口②③⑤ |②-③-|
④②③口 |--④-|
口口④口 |--⑤-|
22
③口口④ |--①-|
口口口口 |②-③-|
③①②④ |④---|
①口口② |----|
23
口①③口 |①---|
①③①口 |--②-|
口②④② |--③-|
口④②口 |--④-|
24
③口③口 |--①-|
①③口② |②---|
②口④① |③---|
口④口④ |④---|
25
②①②① |①---|
①②①② |--②-|
③口口④ |--③-|
④③④③ |--④-|
26
①口①口 |--①-|
口②口② |②-③-|
③口③口 |④---|
口④口④ |----|
27
①口口① |①-②③|
①口口① |-④-⑤|
口口③②
④口⑤口

⑦口⑥口
口口口口
口口口口 |--⑥-|
口口口口 |⑦---|
28
口⑥口口 |①-②③|
口口①口 |-④-⑤|
②③口口 |--⑥-|
口⑤口④ |----|
29
⑧口⑥口 |①-②③|
①⑦口口 |-④-⑤|
口口③② |--⑥-|
④口⑤口 |⑦-⑧-|
30
口⑥口⑦ |①-②③|
口口①口 |-④-⑤|
②③口口 |--⑥-|
口⑤口④ |⑦---|
31
⑦口⑥口 |①-②③|
口①口口 |-④-⑤|
口口③② |--⑥-|
④口⑤口 |⑦---|
32
口⑥口口 |①-②③|
口口①口 |-④-⑤|
②③口口 |--⑥-|
口⑤口④ |----|
33
⑧口⑥口 |①-②③|
①⑦口口 |-④-⑤|
口口③② |--⑥-|
④口⑤口 |⑦-⑧-|
34
口⑥口⑦ |①-②③|
口口①口 |-④-⑤|
②③口口 |--⑥-|
口⑤口④ |⑦---|
35
口口口口 |①-②③|
①①口口 |-④-⑤|
①①③②
④口⑤口

⑧口⑦⑥
口⑨口口
口口口口 |-⑥⑦-|
口口口口 |⑧-⑨-|
36
⑥⑦口口 |①-②③|
口口①⑧ |-④-⑤|
②③口口 |-⑥⑦-|
口⑤口④ |⑧---|
37
⑧口⑦⑥ |①-②③|
①⑨口口 |-④-⑤|
口口③② |-⑥⑦-|
④口⑤口 |⑧-⑨-|
38
⑥⑦口⑧ |①-②③|
口口①口 |-④-⑤|
②③口口 |-⑥⑦-|
口⑤口④ |⑧---|
39
口口口口 |①-②③|
①①口口 |-④-⑤|
①①③②
④口⑤口

⑧口⑦⑥
口⑨口口
口口口口 |-⑥⑦-|
口口口口 |⑧-⑨-|
40
⑥⑦口口 |①-②③|
口口①⑧ |-④-⑤|
②③口口 |-⑥⑦-|
口⑤口④ |⑧---|
41
口口口口 |①-②③|
①①口口 |-④-⑤|
①①③②
④口⑤口

⑧口⑦⑥
口⑨口口
口口口口 |-⑥⑦-|
口口口口 |⑧-⑨-|
42
口口口口 |①-②③|
口口①口 |-④-⑤|
②③口口
口⑤口④

⑥⑦口⑧
口⑪⑩⑨
口口口口 |-⑥⑦-|
口口口口 |⑧----⑨⑩⑪|
43
⑧口⑦⑥ |①-②③|
①⑨口口 |-④-⑤|
口口③② |-⑥⑦-|
④口⑤口 |⑧-⑨-|
44
⑧口⑦⑥ |①-②③|
①⑨口① |-④-⑤|
口口③② |-⑥⑦-|
④口⑤口 |⑧-⑨-|
45
口⑤口⑥ |①②③④|
⑦口④口 |⑤⑥⑦⑧|
③口⑧②
口①口口

口口口口
口⑮口⑭
口⑪口⑯ |⑨⑩⑪⑫|
⑨⑬⑩⑫ |⑬⑭⑮⑯|
46
口⑤口④ |①②③④|
③口②口 |⑤⑥⑦⑧|
①口⑥口
⑦口⑧口

⑪口⑫⑯
口⑬口⑩
口⑨口口 |⑨⑩⑪⑫|
口⑮口⑭ |⑬⑭⑮⑯|
47
口③口③ |①---|
③口③口 |----|
①②口② |②---|
②口②口 |③---|
48
②口口口 |①---|
口②口口 |--②-|
②口①口
口①口①

口口口③
口口③口
口口④③ |--③-|
④口口口 |--④-|
49
④口口③ |--①-|
口③④口 |②---|
③①口④ |③---|
口②②① |④---|
50
④①①④ |①---|
①口口① |--②-|
③②②③ |--③-|
②③③② |--④-|
51
口口①口 |--①-|
④②④① |②-③-|
③口②④ |④---|
口③口口 |----|
52
口口口② |①---|
口口②口 |--②-|
口①口②
①口①口

③口口口
口③口口
③④口口 |--③-|
口口口④ |--④-|
53
③口口④ |--①-|
口④③口 |②---|
④口①③ |③---|
①②②口 |④---|
54
④①①④ |①---|
①口口① |--②-|
③②②③ |--③-|
②③③② |--④-|
55
口①口口 |--①-|
①④②④ |②-③-|
④②口③ |④---|
⑤⑤③⑤ |⑤---|
56
①口①① |①---|
口③②口 |②-③-|
口③②口
口口口口

⑤口口⑤
口口口口
⑤口口⑤ |--④-|
④口口④ |--⑤-|
57
口③④口 |--①-|
⑤④③⑥ |②-③-|
口①②口 |④---|
⑥②①⑤ |⑤-⑥-|
58
①⑤口① |①---|
口②③⑤ |②-③-|
④②③口 |--④-|
口口④口 |--⑤-|
59
③口口口 |--①-|
口口口口 |②-③-|
③①②口
①口口②

口口口④
⑤⑥⑦口
口口口④ |④---⑤⑥⑦-|
⑩⑨⑧口 |----⑧⑨⑩-|
60
口②口口 |①---|
口口口② |--②-|
口①口口
口口口①

③口③口
口③口口
口口④口 |--③-|
口④口④ |--④-|
61
③口③口 |--①-|
①③口② |②---|
②口④① |③---|
口④口④ |④---|
62
②①②① |①---|
①②①② |--②-|
③口口④ |--③-|
④③④③ |--④-|
63
⑤①⑤② |--①-|
①⑤②⑤ |②-③-|
③口④口 |④---|
口③口④ |⑤---|
64
口口口口 |①-②-|
④口口口 |③-④-|
②①④③
①④①口

⑦⑥⑧⑥
口⑧⑥⑤
⑧口口口 |⑤-⑥-|
口口口口 |⑦-⑧-|
65
口口口口 |①-②-|
口口口口 |③---|
口口③②
①口②③

口④口④
⑤口④口
口⑤口口 |④---|
⑤口口口 |⑤---|
66
①④①④ |①-②-|
⑥①⑥① |③-④-|
③⑦④② |⑤-⑥-|
⑦⑥⑦⑤ |--⑦-|
67
⑤④①⑤ |--①-|
④②④① |②-③-|
③口②③ |④---|
口口口口 |⑤---|
68
口口口口 |①-②-|
口口口④ |③-④-|
③④①②
口①④①

⑥⑧⑥⑦
⑤⑥⑧口
口口口⑧ |⑤-⑥-|
口口口口 |⑦-⑧-|
69
口口口口 |①-②-|
口口口口 |③---|
②③口口
③②口①

④口④口
口④口⑤
口口⑤口 |④---|
口口口⑤ |⑤---|
70
④①④① |①-②-|
①⑥①⑥ |③-④-|
②④⑦③ |⑤-⑥-|
⑤⑦⑥⑦ |--⑦-|
71
口①④口 |--①-|
①④②④ |②-③-|
③②口③ |④---|
⑤口⑤⑤ |⑤---|
72
①①口① |①-②-|
②③④口 |③-④-|
口④③口
口口口口

⑦口口⑦
口口口⑤
⑦口口⑦ |⑤-⑥-|
⑥口口⑥ |--⑦-|
73
口④③口 |--①-|
⑥③④⑤ |②-③-|
口②①口 |④---|
⑤①②⑥ |⑤-⑥-|
74
①⑤⑤① |①---|
⑤③②口 |②-③-|
口②③④ |--④-|
口④④口 |--⑤-|
75
口口口③ |--①-|
口口口口 |②-③-|
口②①③
②口口①

④口口口
口⑦⑥⑤
④口口口 |④---⑤⑥⑦-|
口⑧⑨⑩ |----⑧⑨⑩-|
76
口口②口 |①---|
②口口口 |--②-|
口口①口
①口口口

口③口③
口口③口
口④口口 |--③-|
④口④口 |--④-|
77
口③口③ |--①-|
②口③① |②---|
①④口② |③---|
④口④口 |④---|
78
①②①② |①---|
②①②① |--②-|
④口口③ |--③-|
③④③④ |--④-|
79
②⑤①⑤ |--①-|
⑤②⑤① |②-③-|
口④口③ |④---|
④口③口 |⑤---|
80
②④②④ |①---|
④②④② |②---|
①③①③ |③---|
③①③① |④---|
81
②④②④ |①---|
④②④② |②---|
①③①③ |③---|
③①③① |④---|
82
②④②④ |①---|
④②④② |②---|
①③①③ |③---|
③①③① |④---|
83
②④②④ |①---|
④②④② |②---|
①③①③ |③---|
③①③① |④---|
84
①口④口 |①-②③|
口口口口 |-④-⑤|
口⑤②口
口③口口

⑧口口⑦
口口口⑥
⑧口口口 |-⑥⑦-|
口口口口 |⑧---|
85
口④⑤口 |①-②③|
口⑤④⑧ |-④-⑤|
⑥口口① |-⑥⑦-|
⑦②③⑧ |⑧---|
86
①口口① |①-②③|
⑩③②⑨ |④⑤⑥⑦|
口④⑤⑧ |-⑧⑨-|
⑪⑦⑥口 |⑩-⑪-|
87
口口③② |①-②③|
⑥①口⑦ |-④-⑤|
口⑤④口 |--⑥-|
⑦④⑤⑥ |⑦---|
88
①口口① |①---|
口①①口 |----|
①口口① |----|
口口口口 |----|

不確定度: 0

最終更新:2014年05月21日 23:33