Yeah Right!
HaKU

BASIC

Level: 3
BPM: 155
Notes: 216

BPM在155附近飄忽不定
1
口口口口 |----|
口口口口 |----|
口口口口 |----|
口口口口 |----|
2
口口口口 |----|
口口口口 |----|
口口口口 |----|
口口口口 |----|
3
口口口口 |----|
口口口口 |----|
口口口口 |----|
口口口口 |----|
4
口口口口 |----|
口口口口 |----|
口口口口 |----|
口口口口 |----|
5
口口口口 |----|
口口口口 |----|
口口口口 |----|
口口口口 |----|
6
口口口口 |①---|
口①口口 |----|
口口口口 |----|
口口口口 |----|
7
口口口口 |①---|
口口①口 |----|
口口口口 |----|
口口口口 |----|
8
口口口口 |①---|
口口口口 |----|
口口①口 |----|
口口口口 |----|
9
口口口口 |①---|
口口口口 |----|
口①口口 |----|
口口口口 |----|
10
口口口口 |①---|
①②口口 |----|
口口口口 |②---|
口口口口 |----|
11
口口口口 |①---|
口口①② |----|
口口口口 |②---|
口口口口 |----|
12
口口口口 |①---|
口口口口 |----|
口口②① |②---|
口口口口 |----|
13
口口口口 |①---|
口口口口 |----|
②①口口 |②---|
口口口口 |----|
14
口口口口 |①---|
①②口口 |----|
口口口口 |②---|
口口口口 |----|
15
口口口口 |①---|
口口①② |----|
口口口口 |②---|
口口口口 |----|
16
口口口口 |①---|
口口口口 |----|
口口②① |②---|
口口口口 |----|
17
口口口口 |①---|
口口口口 |----|
②①口口 |②---|
口口口口 |----|
18
口口口口 |①---|
口①①口 |----|
口口口口 |----|
口口口口 |----|
19
口①①口 |①---|
口②②口 |----|
口口口口 |②---|
口口口口 |----|
20
①口口① |①---|
口口口口 |----|
口口口口 |----|
口口口口 |----|
21
口口口口 |----|
口口口口 |----|
口口口口 |----|
口口口口 |----|
22
口口口口 |①---|
口①①口 |----|
口口口口 |----|
口口口口 |----|
23
②①①② |①---|
口口口口 |----|
口口口口 |②---|
口口口口 |----|
24
口口口口 |①---|
①口口① |----|
口②②口 |②---|
口口口口 |----|
25
口口口口 |①---|
①口口① |----|
口②②口 |②---|
口口口口 |----|
26
口口口口 |①---|
①①①① |----|
口口口口 |----|
口口口口 |----|
27
口口口口 |----|
口口口口 |----|
口口口口 |----|
口口口口 |----|
28
口口口口 |①---|
①口口① |----|
口②②口 |②---|
口口口口 |----|
29
口口口口 |①---|
①口口① |----|
口②②口 |②---|
口口口口 |----|
30
口口口口 |①---|
①①①① |----|
口口口口 |----|
口口口口 |----|
31
口口口口 |----|
口口口口 |----|
口口口口 |----|
口口口口 |----|
32
口口口口 |①---|
口口口口 |②---|
①口口④ |③---|
口②③口 |④---|
33
口口口口 |①---|
④③②① |②---|
口口口口 |③---|
口口口口 |④---|
34
口口口口 |①---|
口口口口 |----|
②①①② |②---|
口口口口 |----|
35
口口口口 |①---|
①①①① |----|
口口口口 |----|
口口口口 |----|
36
口口口口 |①---|
口口口口 |②---|
④口口① |③---|
口③②口 |④---|
37
口口口口 |①---|
①②③④ |②---|
口口口口 |③---|
口口口口 |④---|
38
口口口口 |①---|
口口口口 |----|
②①①② |②---|
口口口口 |----|
39
口口口口 |①---|
①①①① |----|
口口口口 |----|
口口口口 |----|
40
口口①① |①---|
口口口口 |----|
口口口口 |----|
口口口口 |----|
41
①①口口 |①---|
口口口口 |----|
口口口口 |----|
口口口口 |----|
42
口②②口 |①---|
口口①① |----|
口口口口 |②---|
口口口口 |----|
43
口口口口 |①---|
①①口口 |----|
口②②口 |②---|
口口口口 |----|
44
口口口口 |①---|
①口口① |----|
②口口② |②---|
口口口口 |----|
45
②口口② |①---|
口①①口 |----|
口①①口 |②---|
口口口口 |----|
46
口口口口 |①---|
①④口口 |②---|
②③口口 |③---|
口口口口 |④---|
47
口口口口 |①---|
口口①④ |②---|
口口②③ |③---|
口口口口 |④---|
48
口口口口 |①---|
③②①口 |②---|
口④口口 |③---|
口口口口 |④---|
49
口③③口 |①---|
口口口② |②---|
口口①口 |③---|
口口口口 |----|
50
口口口口 |①---|
口口④① |②---|
口口③② |③---|
口口口口 |④---|
51
口口口口 |①---|
④①口口 |②---|
③②口口 |③---|
口口口口 |④---|
52
口口口口 |①---|
②口口② |----|
口①①口 |②---|
口口口口 |----|
53
②②②② |①---|
口①①口 |----|
口口口口 |②---|
口口口口 |----|
54
口口口口 |①---|
①口口① |----|
口②②口 |②---|
口口口口 |----|
55
口口口口 |①---|
①口口① |----|
口②②口 |②---|
口口口口 |----|
56
口口口口 |①---|
①①①① |----|
口口口口 |----|
口口口口 |----|
57
口口口口 |----|
口口口口 |----|
口口口口 |----|
口口口口 |----|
58
口口口口 |①---|
①口口① |----|
口②②口 |②---|
口口口口 |----|
59
口口口口 |①---|
①口口① |----|
口②②口 |②---|
口口口口 |----|
60
口口口口 |①---|
①①①① |----|
口口口口 |----|
口口口口 |----|
61
口口口口 |----|
口口口口 |----|
口口口口 |----|
口口口口 |----|
62
口口口口 |①---|
口口口口 |②---|
①口口④ |③---|
口②③口 |④---|
63
口口口口 |①---|
④③②① |②---|
口口口口 |③---|
口口口口 |④---|
64
口口口口 |①---|
口口口口 |----|
②①①② |②---|
口口口口 |----|
65
口口口口 |①---|
①①①① |----|
口口口口 |----|
口口口口 |----|
66
口口口口 |①---|
口口口口 |②---|
④口口① |③---|
口③②口 |④---|
67
口口口口 |①---|
①②③④ |②---|
口口口口 |③---|
口口口口 |④---|
68
口口口口 |①---|
口口口口 |----|
②①①② |②---|
口口口口 |----|
69
口口口口 |①---|
①①①① |----|
口口口口 |----|
口口口口 |----|
70
口口口口 |①---|
口①②口 |----|
口②①口 |----|
口口口口 |②---|
71
口口口口 |----|
口口口口 |----|
口口①① |①---|
口口口口 |----|
72
口口口口 |①---|
口①①口 |----|
②②口口 |②---|
口口口口 |----|
73
口口口口 |①---|
①①①① |----|
口口口口 |----|
口口口口 |----|

不確定度: 0

最終更新:2014年05月21日 18:51