Yeah Right!
HaKU

ADVANCED

Level: 7
BPM: 155
Notes: 499

BPM在155附近飄忽不定
1
口口口口 |----|
口口口口 |----|
口口口口 |----|
口口口口 |----|
2
口口口口 |----|
口口口口 |----|
口口口口 |----|
口口口口 |----|
3
口口口口 |----|
口口口口 |----|
口口口口 |----|
口口口口 |----|
4
口口口口 |----|
口口口口 |----|
口口口口 |----|
口口口口 |----|
5
口口口口 |----|
口口口口 |----|
口口口口 |----|
口口口口 |----|
6
口口口口 |①---|
口口口口 |②---|
③口口④ |③---|
①口口② |④---|
7
③口口④ |①---|
①口口② |②---|
口口口口 |③---|
口口口口 |④---|
8
口口口口 |①---|
口口口口 |②---|
③口口④ |③---|
①口口② |④---|
9
③口口④ |①---|
①口口② |②---|
口口口口 |③---|
口口口口 |④---|
10
口口口口 |①---|
①①口口 |②---|
②②④④ |③---|
口③③口 |④---|
11
③②②③ |①---|
口口①① |②---|
口口口口 |③---|
口口口口 |----|
12
口口口口 |①---|
口口①① |②---|
④④②② |③---|
口③③口 |④---|
13
③②②③ |①---|
①①口口 |②---|
口口口口 |③---|
口口口口 |----|
14
口口口口 |①---|
①①口口 |②---|
②②④④ |③---|
口③③口 |④---|
15
③②②③ |①---|
口口①① |②---|
口口口口 |③---|
口口口口 |----|
16
口口口口 |①---|
口口①① |②---|
④④②② |③---|
口③③口 |④---|
17
口②②口 |①---|
①①口口 |②---|
口口口口
口口口口

③口口③
口④口口
口口口口 |③---|
口口口口 |--④-|
18
口口口口 |①--②|
口口①口 |--③-|
口口口口
②口口③

口④④口
口⑤⑤口
口⑥⑥口 |④--⑤|
口口口口 |--⑥-|
19
⑥⑥⑥⑥ |①--②|
①口口② |--③-|
⑤口口⑤ |④--⑤|
口③④口 |---⑥|
20
口口口口 |----|
口口口口 |----|
②口口① |①---|
口口口口 |②---|
21
口口口口 |①---|
口口⑤口 |②---|
④口口③ |③---|
②口口① |④-⑤-|
22
口④④口 |①--②|
⑤①口⑤ |--③-|
口⑥⑥口 |④--⑤|
③口口② |--⑥-|
23
⑥③③⑥ |①--②|
⑥③③⑥ |--③-|
口④⑤口 |--④-|
②②①① |⑤-⑥-|
24
口口口口 |--①-|
口口口口 |②-③-|
⑥口口③ |--④-|
④②⑤① |⑤-⑥-|
25
口口口口 |--①-|
⑥口口③ |②-③-|
④②⑤① |--④-|
口口口口 |⑤-⑥-|
26
①口口① |--①-|
口①①口 |----|
口②③口 |②---|
口②③口 |③---|
27
⑤①②⑤ |①---|
⑤①②⑤ |②---|
③口④③ |③-④-|
口④口口 |--⑤-|
28
口口口口 |--①-|
口口口口 |②-③-|
③口口⑥ |--④-|
①⑤②④ |⑤-⑥-|
29
口口口口 |--①-|
③口口⑥ |②-③-|
①⑤②④ |--④-|
口口口口 |⑤-⑥-|
30
①口口① |--①-|
口①①口 |----|
口③②口 |②---|
口③②口 |③---|
31
口②①口 |①---|
口②①口 |②---|
④口口口 |③---|
③③③③ |--④-|
32
口口③② |①-②-|
④⑤口口 |③-④-|
⑧①口口 |⑤-⑥-|
口口⑦⑥ |⑦-⑧-|
33
口口③② |①-②-|
④口口口 |③-④-|
口①口口
口口口口

口口口口
口⑤口口
口⑧口口 |⑤-⑥-|
口口⑦⑥ |⑦-⑧-|
34
口②口③ |①-②-|
口口①③ |--③-|
口口口口
口口口口

④⑤⑤口
④口口口
口口口口 |--④-|
口口口口 |--⑤-|
35
口口口口 |①---|
口①①口 |----|
口口口② |----|
口口口口 |--②-|
36
②③口口 |①-②-|
口口⑤④ |③-④-|
口口①⑧ |⑤-⑥-|
⑥⑦口口 |⑦-⑧-|
37
②③口口 |①-②-|
口口口④ |③-④-|
口口①口
口口口口

口口口口
口口⑤口
口口⑧口 |⑤-⑥-|
⑥⑦口口 |⑦-⑧-|
38
口⑧⑧口 |①-②-|
⑥①③⑦ |③-④-|
④②口⑤ |⑤-⑥-|
口口口口 |⑦-⑧-|
39
口口口口 |①---|
口①①口 |----|
口口口口 |----|
口口口口 |----|
40
①口口① |①---|
④口口④ |②-③-|
口②③口 |④---|
口⑤⑥口 |⑤-⑥-|
41
口②③口 |①---|
口⑤⑥口 |②-③-|
①口口① |④---|
④口口④ |⑤-⑥-|
42
口①③口 |①---|
①口口③ |②---|
④④②② |③---|
口口口口 |④---|
43
口①②口 |①---|
①口口② |②---|
口⑤⑥口 |③-④-|
口③④口 |⑤-⑥-|
44
口口口口 |①---|
①①①① |----|
口口口口 |②---|
②②②② |----|
45
①口口① |①---|
①口②① |----|
口口口② |②---|
口口口口 |----|
46
口口口口 |①---|
口口口口 |----|
①口口口 |----|
口①口口 |----|
47
口口口口 |①-②-|
⑧③⑥① |③-④-|
④⑦②⑤ |⑤-⑥-|
口口口口 |⑦-⑧-|
48
口口口口 |①-②-|
口口口口 |③-④-|
④⑦②⑤ |⑤-⑥-|
⑧③⑥① |⑦-⑧-|
49
⑤⑤⑤⑤ |①-②-|
口③口① |③-④-|
④口②口 |⑤---|
口口口口 |----|
50
口口口口 |①---|
①口口口 |②-③-|
口①③口
口口口②

口口口口
口口口口
口⑤口口 |--④-|
④口⑥口 |⑤-⑥-|
51
口口口口 |①-②-|
口②口④ |③-④-|
①口③口
口口口口

口⑤⑤口
口口口口
⑥口口⑥ |⑤---|
口口口口 |⑥---|
52
口口口口 |①--②|
①①④④ |--③-|
口口口口 |④--⑤|
③⑤②⑥ |--⑥-|
53
口口口口 |①--②|
①①口口 |--③-|
口口口口
③口②口

⑦④④⑦
⑦口口⑦
口⑥⑤口 |④-⑤-|
口口口口 |⑥-⑦-|
54
口口口口 |--①-|
口口口口 |②-③-|
③口口⑥ |--④-|
①⑤②④ |⑤-⑥-|
55
口口口口 |--①-|
③口口⑥ |②-③-|
①⑤②④ |--④-|
口口口口 |⑤-⑥-|
56
①口口① |--①-|
口①①口 |----|
口③②口 |②---|
口③②口 |③---|
57
⑤②①⑤ |①---|
⑤②①⑤ |②---|
③④口③ |③-④-|
口口④口 |--⑤-|
58
口口口口 |--①-|
口口口口 |②-③-|
⑥口口③ |--④-|
④②⑤① |⑤-⑥-|
59
口口口口 |--①-|
⑥口口③ |②-③-|
④②⑤① |--④-|
口口口口 |⑤-⑥-|
60
①口口① |--①-|
口①①口 |----|
口②③口 |②---|
口②③口 |③---|
61
口①②口 |①---|
口①②口 |②---|
口口口④ |③---|
③③③③ |--④-|
62
②③口口 |①-②-|
口口⑤④ |③-④-|
口口①⑧ |⑤-⑥-|
⑥⑦口口 |⑦-⑧-|
63
②③口口 |①-②-|
口口口④ |③-④-|
口口①口
口口口口

口口口口
口口⑤口
口口⑧口 |⑤-⑥-|
⑥⑦口口 |⑦-⑧-|
64
③口②口 |①-②-|
③①口口 |--③-|
口口口口
口口口口

口⑤⑤④
口口口④
口口口口 |--④-|
口口口口 |--⑤-|
65
口口口口 |①---|
口①①口 |----|
②口口口 |----|
口口口口 |--②-|
66
口口③② |①-②-|
④⑤口口 |③-④-|
⑧①口口 |⑤-⑥-|
口口⑦⑥ |⑦-⑧-|
67
口口③② |①-②-|
④口口口 |③-④-|
口①口口
口口口口

口口口口
口⑤口口
口⑧口口 |⑤-⑥-|
口口⑦⑥ |⑦-⑧-|
68
口⑧⑧口 |①-②-|
⑦③①⑥ |③-④-|
⑤口②④ |⑤-⑥-|
口口口口 |⑦-⑧-|
69
口口口口 |①---|
口①①口 |----|
口口口口 |----|
口口口口 |----|
70
口口口口 |①--②|
①口口③ |--③-|
①口口③
口②②口

口口口口
⑤口口口
⑤口口口 |④---|
④⑥⑥④ |⑤--⑥|
71
口口口口 |--①-|
口口口① |②---|
口口口①
②口口②

口④④口
③口口⑤
口③⑤口 |③--④|
口口口口 |--⑤-|
72
②⑤⑤② |①--②|
④①③⑥ |--③-|
①④⑥③ |④--⑤|
口口口口 |--⑥-|
73
②口口② |①--②|
口①③口 |--③-|
①口口③ |----|
口口口口 |----|

不確定度: 0

最終更新:2014年05月21日 18:51