Yeah Right!
HaKU

EXTREME

Level: 10
BPM: 155
Notes: 942

BPM在155附近飄忽不定
1
口口口口 |----|
口口口口 |----|
口口口口 |----|
口口口口 |----|
2
口①口口 |①---|
①口口口 |②--③|
口口②③
口②口③

④口口口
④口口口
口口口口 |----|
口口口口 |④---|
3
口口①口 |①---|
口口口① |②--③|
③②口口
③口②口

口口口④
口口口④
口口口口 |----|
口口口口 |④---|
4
口①口口 |①---|
①口口口 |②--③|
口口②③
口②口③

④口口口
④口口口
口口口口 |----|
口口口口 |④---|
5
口口①口 |①---|
口口口① |②--③|
③②口口
③口②口

口口口④
口口口④
口口口口 |----|
口口口口 |④---|
6
口①口口 |①-②-|
①②④口 |③-④⑤|
口口③⑤
口③口⑤

⑦口口⑥
⑦口口口
口口口口 |--⑥-|
⑥口口口 |⑦---|
7
口口①口 |①-②-|
口④②① |③-④⑤|
⑤③口口
⑤口③口

⑥口口⑦
口口口⑦
口口口口 |--⑥-|
口口口⑥ |⑦---|
8
口①口口 |①-②-|
①②④口 |③-④⑤|
口口③⑤
口③口⑤

⑦口口⑥
⑦口口口
口口口口 |--⑥-|
⑥口口口 |⑦---|
9
口口①口 |①-②-|
口④②① |③-④⑤|
⑤③口口
⑤口③口

⑥口口⑦
口口口⑦
口口口口 |--⑥-|
口口口⑥ |⑦---|
10
口①口口 |①-②③|
①③②口 |④⑤⑥⑦|
口⑤④口
口⑦⑥口

⑬⑬口⑫
⑪口口⑩
⑨口口⑧ |⑧⑨⑩⑪|
口口口口 |⑫-⑬-|
11
口口口口 |①②③④|
口口⑧口 |⑤⑥⑦⑧|
⑦⑧⑥⑤ |----|
③④②① |----|
12
①⑫⑫② |①-②-|
①④⑥② |③④⑤⑥|
③⑧⑩⑤ |⑦⑧⑨⑩|
⑦⑪⑪⑨ |⑪-⑫-|
13
口口口口 |①②③④|
①②④③ |⑤⑥⑦⑧|
⑤⑥⑧⑦ |----|
口⑧口口 |----|
14
口②①口 |①②③④|
口④③口 |⑤⑥⑦⑧|
口⑥⑤口
口⑧⑦口

口口⑬⑬
⑫口口⑪
⑩口口⑨ |⑨⑩⑪⑫|
口口口口 |--⑬-|
15
口口口口 |①②③④|
口口⑧口 |⑤⑥⑦⑧|
⑦⑧⑥⑤ |----|
③④②① |----|
16
①③③② |①--②|
口口口口 |--③-|
口②①口
口口口口

⑪口口⑩
⑨口口⑧
⑦口口⑥ |④⑤⑥⑦|
⑤口口④ |⑧⑨⑩⑪|
17
口口口口 |①②③④|
口②①口 |⑤⑥⑦-|
⑦④③⑦
⑦⑥⑤⑦

⑧口口口
口⑧口口
口口口口 |----|
口口口口 |--⑧-|
18
口①口⑥ |①--②|
①口⑥② |--③-|
④②口③ |④--⑤|
⑤③④⑤ |--⑥-|
19
口口①口 |①--②|
②口口① |--③-|
③口②口
口口③口

⑥口口⑥
口口口口
口⑥⑥④ |④--⑤|
⑤④口⑤ |---⑥|
20
口②④口 |----|
①⑥⑧③ |①②③④|
⑤⑩⑫⑦ |⑤⑥⑦⑧|
⑨口口⑪ |⑨⑩⑪⑫|
21
⑬②④口 |①②③④|
①⑥⑧③ |⑤⑥⑦⑧|
⑤⑩⑫⑦ |⑨⑩⑪⑫|
⑨口⑬⑪ |--⑬-|
22
口④口① |①--②|
②口口③ |③-④-|
③口④②
口①口口

口口⑤口
口口口口
口⑤口⑦ |⑤--⑥|
⑥口口⑥ |--⑦-|
23
口③口③ |①--②|
①②②口 |--③-|
③口③口
口②②口

口口⑥口
口口口⑥
口⑥口口 |--④-|
⑤口⑥④ |⑤-⑥-|
24
①口口④ |--①-|
①②⑤④ |②-③-|
⑥⑤②③ |--④-|
⑥③⑥③ |⑤-⑥-|
25
①口口④ |--①-|
①②⑤④ |②-③-|
⑥⑤②③ |--④-|
⑥③⑥③ |⑤-⑥-|
26
口口①口 |--①-|
①口口口 |----|
口口口①
口①口口

口④口②
口③口③
口②口④ |②--③|
口口口口 |--④-|
27
口口口口 |①-②-|
口④③口 |③-④-|
口口口口
口②①口

⑤⑦⑤口
⑦口口口
⑥口⑦⑥ |⑤-⑥-|
⑥⑦口⑥ |--⑦-|
28
④口口① |--①-|
④⑤②① |②-③-|
③②⑤⑥ |--④-|
③⑥③⑥ |⑤-⑥-|
29
④口口① |--①-|
④⑤②① |②-③-|
③②⑤⑥ |--④-|
③⑥③⑥ |⑤-⑥-|
30
口①口口 |--①-|
口口口① |----|
①口口口
口口①口

②口④口
③口③口
④口②口 |②--③|
口口口口 |--④-|
31
口⑤口⑤ |①-②-|
⑩③④⑪ |③-④-|
⑧口口⑨ |⑤-⑥⑦|
⑥①②⑦ |⑧⑨⑩⑪|
32
①③①③ |①-②-|
⑥⑤⑦⑧ |③-④-|
⑧②④⑥ |⑤-⑥-|
⑦④②⑤ |⑦-⑧-|
33
③④②① |①-②-|
⑤⑧⑥⑦ |③-④-|
⑥①③⑧ |⑤-⑥-|
⑦②④⑤ |⑦-⑧-|
34
①②①② |①-②-|
③口③口 |--③-|
口②①口
口③口③

⑤口口⑤
口④口④
⑤口口⑤ |--④-|
④口④口 |--⑤-|
35
口①①口 |①---|
⑨③②⑧ |②---|
⑦①①⑥ |③-④⑤|
⑤②③④ |⑥⑦⑧⑨|
36
③①③① |①-②-|
⑧⑦⑤⑥ |③-④-|
⑥④②⑧ |⑤-⑥-|
⑤②④⑦ |⑦-⑧-|
37
①②④③ |①-②-|
⑦⑥⑧⑤ |③-④-|
⑧③①⑥ |⑤-⑥-|
⑤④②⑦ |⑦-⑧-|
38
①②④③ |①-②-|
⑦⑥⑧⑤ |③-④-|
⑧③①⑥ |⑤-⑥-|
⑤④②⑦ |⑦-⑧-|
39
①口口① |①---|
口口口口 |----|
口①①口
口口口口

口②③口
口④⑤口
口⑥⑦口 |②③④⑤|
口⑧⑨口 |⑥⑦⑧⑨|
40
④⑩③口 |①-②-|
⑩⑥⑨⑤ |③④⑤⑥|
口⑨⑦① |⑦-⑧-|
②口⑧⑧ |⑨-⑩-|
41
④⑩③口 |①-②-|
⑩⑥⑨⑤ |③④⑤⑥|
口⑨⑦① |⑦-⑧-|
②口⑧⑧ |⑨-⑩-|
42
⑥口口① |①-②③|
口⑤⑩口 |④-⑤-|
⑦⑧③② |⑥-⑦⑧|
①④⑨⑥ |⑨-⑩-|
43
③⑧⑫① |①-②-|
②⑦⑪④ |③-④-|
④⑥⑩② |⑤⑥⑦⑧|
①⑤⑨③ |⑨⑩⑪⑫|
44
②口口① |①---|
①口口② |----|
②口口① |②---|
①口口② |----|
45
②①口① |①---|
①②①③ |----|
②①口④ |②---|
口②口口 |--③④|
46
口口⑧⑦ |①-②-|
口口口口 |③---|
④③⑥⑤ |④-⑤-|
②⑥③① |⑥-⑦⑧|
47
⑤⑥口口 |①②③④|
①②④③ |⑤⑥⑦⑧|
口口⑧⑦
口口口口

口口⑬口
口⑬口口
口口口口 |⑨⑩⑪⑫|
⑨⑩⑫⑪ |⑬---|
48
①⑨⑬⑤ |①②③④|
②⑩⑭⑥ |⑤⑥⑦⑧|
③⑪⑮⑦ |⑨⑩⑪⑫|
④⑫⑯⑧ |⑬⑭⑮⑯|
49
①⑨⑨⑤ |①②③④|
②⑨⑨⑥ |⑤⑥⑦⑧|
③口口⑦ |⑨---|
④口口⑧ |----|
50
②③③① |①---|
②⑤⑤① |②-③-|
⑥①②④ |--④-|
口⑥④口 |⑤-⑥-|
51
⑨⑧⑥⑨ |①②③④|
⑦⑨⑨⑤ |⑤⑥⑦⑧|
⑩④②⑩ |⑨---|
③⑩⑩① |⑩---|
52
口⑥口口 |①--②|
口③⑥口 |--③-|
⑤口③④ |④--⑤|
②口口① |--⑥-|
53
口口口③ |①--②|
②口口① |--③-|
③口口口
口口口口

④⑦口口
⑦口口口
口口⑦④ |④-⑤-|
⑤⑦④⑥ |⑥-⑦-|
54
④口口① |--①-|
④⑤②① |②-③-|
③②⑤⑥ |--④-|
③⑥③⑥ |⑤-⑥-|
55
④口口① |--①-|
④⑤②① |②-③-|
③②⑤⑥ |--④-|
③⑥③⑥ |⑤-⑥-|
56
口①口口 |--①-|
口口口① |----|
①口口口
口口①口

②口④口
③口③口
④口②口 |②--③|
口口口口 |--④-|
57
口口口口 |①-②-|
口③④口 |③-④-|
口口口口
口①②口

口⑤⑦⑤
口口口⑦
⑥⑦口⑥ |⑤-⑥-|
⑥口⑦⑥ |--⑦-|
58
①口口④ |--①-|
①②⑤④ |②-③-|
⑥⑤②③ |--④-|
⑥③⑥③ |⑤-⑥-|
59
①口口④ |--①-|
①②⑤④ |②-③-|
⑥⑤②③ |--④-|
⑥③⑥③ |⑤-⑥-|
60
口口①口 |--①-|
①口口口 |----|
口口口①
口①口口

口④口②
口③口③
口②口④ |②--③|
口口口口 |--④-|
61
⑤口⑤口 |①-②-|
⑪④③⑩ |③-④-|
⑨口口⑧ |⑤-⑥⑦|
⑦②①⑥ |⑧⑨⑩⑪|
62
③①③① |①-②-|
⑧⑦⑤⑥ |③-④-|
⑥④②⑧ |⑤-⑥-|
⑤②④⑦ |⑦-⑧-|
63
①②④③ |①-②-|
⑦⑥⑧⑤ |③-④-|
⑧③①⑥ |⑤-⑥-|
⑤④②⑦ |⑦-⑧-|
64
②①②① |①-②-|
口③口③ |--③-|
口①②口
③口③口

⑤口口⑤
④口④口
⑤口口⑤ |--④-|
口④口④ |--⑤-|
65
口①①口 |①---|
⑧②③⑨ |②---|
⑥①①⑦ |③-④⑤|
④③②⑤ |⑥⑦⑧⑨|
66
①③①③ |①-②-|
⑥⑤⑦⑧ |③-④-|
⑧②④⑥ |⑤-⑥-|
⑦④②⑤ |⑦-⑧-|
67
③④②① |①-②-|
⑤⑧⑥⑦ |③-④-|
⑥①③⑧ |⑤-⑥-|
⑦②④⑤ |⑦-⑧-|
68
③④②① |①-②-|
⑤⑧⑥⑦ |③-④-|
⑥①③⑧ |⑤-⑥-|
⑦②④⑤ |⑦-⑧-|
69
①口口① |①---|
口口口口 |----|
口①①口
口口口口

口③②口
口⑤④口
口⑦⑥口 |②③④⑤|
口⑨⑧口 |⑥⑦⑧⑨|
70
①③③② |①--②|
①口口② |--③-|
②口口①
②口口①

⑤口口⑥
⑤口④⑥
⑥④口⑤ |④---|
⑥口口⑤ |⑤--⑥|
71
口①①口 |--①-|
口②口口 |②---|
口口②口
口口口口

③⑤口口
口口⑤④
④⑤口口 |③--④|
口口⑤③ |--⑤-|
72
④⑥③① |①--②|
②③⑥⑤ |--③-|
⑤⑥③② |④--⑤|
①③⑥④ |--⑥-|
73
口口③① |①--②|
②口口③ |--③-|
③口口② |----|
①③口口 |----|

不確定度: 0

最終更新:2014年05月21日 18:51