ワールズエンド・ダンスホール
wowaka

BASIC

Level: 3
BPM: 171
Notes: 157

1
口口口口 |----|
口口口口 |----|
口口口口 |----|
口口口口 |----|
2
口口口口 |----|
口口口口 |----|
口口口口 |----|
口口口口 |----|
3
口口口口 |----|
口口口口 |----|
口口口口 |----|
口口口口 |----|
4
口口口口 |----|
口口口口 |----|
口口口口 |----|
口口口口 |----|
5
口口口口 |----|
口口口口 |----|
口口口口 |----|
口口口口 |----|
6
口口口口 |①---|
口口①口 |----|
口口口口 |----|
口口口口 |----|
7
口口口口 |①---|
口①口口 |----|
口口口口 |----|
口口口口 |----|
8
口口口口 |①---|
口口口口 |----|
口①口口 |----|
口口口口 |----|
9
口口口口 |①---|
口口口口 |----|
口口①口 |----|
口口口口 |----|
10
口口口口 |①---|
口口①口 |----|
口口口口 |----|
口口口口 |----|
11
口口口口 |①---|
口①口口 |----|
口口口口 |----|
口口口口 |----|
12
口口口口 |①---|
口口口口 |----|
口①口口 |----|
口口口口 |----|
13
口口口口 |①---|
口口口口 |----|
口口①口 |----|
口口口口 |----|
14
口口口口 |①---|
口①口口 |----|
口口口口 |----|
口口口口 |----|
15
口口口口 |①---|
口口①口 |----|
口口口口 |----|
口口口口 |----|
16
口口口口 |①---|
口口口口 |----|
口口①口 |----|
口口口口 |----|
17
口口口口 |①---|
口口口口 |----|
口①口口 |----|
口口口口 |----|
18
口口口口 |①---|
口①口口 |----|
口口口口 |----|
口口口口 |----|
19
口口口口 |①---|
口口①口 |----|
口口口口 |----|
口口口口 |----|
20
口口口口 |①---|
口口口口 |----|
口口①口 |----|
口口口口 |----|
21
口口口口 |①---|
口口口口 |----|
口①口口 |----|
口口口口 |----|
22
口口口口 |①---|
①②口口 |----|
口口口口 |②---|
口口口口 |----|
23
口口口口 |①---|
口口①口 |----|
口②口口 |②---|
口口口口 |----|
24
口口口口 |①---|
口口②① |----|
口口口口 |②---|
口口口口 |----|
25
②口口口 |①---|
口①口口 |----|
口口口口 |②---|
口口口口 |----|
26
口口口口 |①---|
①②口口 |----|
口口口口 |②---|
口口口口 |----|
27
口口口口 |①---|
口口①口 |----|
口②口口 |②---|
口口口口 |----|
28
口口口口 |①---|
口口②① |----|
口口口口 |②---|
口口口口 |----|
29
②口口口 |①---|
口①口口 |----|
口口口口 |②---|
口口口口 |----|
30
口口口口 |①---|
①②口口 |----|
口口口口 |②---|
口口口口 |----|
31
口口口口 |①---|
口口①口 |----|
口②口口 |②---|
口口口口 |----|
32
口口口口 |①---|
口口②① |----|
口口口口 |②---|
口口口口 |----|
33
②口口口 |①---|
口①口口 |----|
口口口口 |②---|
口口口口 |----|
34
口口口口 |①---|
①②口口 |----|
口口口口 |②---|
口口口口 |----|
35
口口口口 |①---|
口口①口 |----|
口②口口 |②---|
口口口口 |----|
36
口口口口 |①---|
口口②① |----|
口口口口 |②---|
口口口口 |----|
37
②口口口 |①---|
口①口口 |----|
口口口口 |②---|
口口口口 |----|
38
口口口口 |①---|
口①口口 |----|
口口口口 |----|
口口口口 |----|
39
口口口口 |①---|
口口①口 |----|
口口口口 |----|
口口口口 |----|
40
口口口口 |①---|
口口口口 |----|
口口①口 |----|
口口口口 |----|
41
口口口口 |①---|
口口口口 |----|
口①口口 |----|
口口口口 |----|
42
口口口口 |①---|
口①口口 |----|
口口口口 |----|
口口口口 |----|
43
口口口口 |①---|
口口①口 |----|
口口口口 |----|
口口口口 |----|
44
口口口口 |①---|
口口口口 |----|
口口①口 |----|
口口口口 |----|
45
口口口口 |①---|
口口口口 |----|
口①口口 |----|
口口口口 |----|
46
口口口口 |①---|
口口②① |----|
口口口口 |②---|
口口口口 |----|
47
口口口口 |①---|
口①口口 |----|
口口②口 |②---|
口口口口 |----|
48
口口口口 |①---|
①②口口 |----|
口口口口 |②---|
口口口口 |----|
49
口口口② |①---|
口口①口 |----|
口口口口 |②---|
口口口口 |----|
50
口口口口 |①---|
口口②① |----|
口口口口 |②---|
口口口口 |----|
51
口口口口 |①---|
口①口口 |----|
口口②口 |②---|
口口口口 |----|
52
口口口口 |①---|
①②口口 |----|
口口口口 |②---|
口口口口 |----|
53
口口口② |①---|
口口①口 |----|
口口口口 |②---|
口口口口 |----|
54
④口口口 |①---|
口③②① |②---|
口口口口 |③---|
口口口口 |④---|
55
口口口④ |①---|
①②③口 |②---|
口口口口 |③---|
口口口口 |④---|
56
口口①口 |①---|
口②口口 |----|
口口口口 |②---|
口口口口 |----|
57
口口①口 |①---|
口④口② |②---|
口口③口 |③---|
口口口口 |④---|
58
①②③口 |①---|
口口口④ |②---|
口口口口 |③---|
口口口口 |④---|
59
口③②① |①---|
④口口口 |②---|
口口口口 |③---|
口口口口 |④---|
60
口口口口 |①---|
口口②口 |----|
口①口口 |②---|
口口口口 |----|
61
口口口口 |①---|
口①口口 |②---|
口口②口 |③---|
口③口口 |----|
62
口②②口 |①---|
口口口口 |----|
口①①口 |②---|
口口口口 |----|
63
口口口口 |①---|
口口口口 |②---|
口③②① |③---|
口口口口 |----|
64
口②口口 |①---|
口口①口 |----|
口口口口 |②---|
口口口口 |----|
65
口口口口 |①---|
①口③口 |②---|
口②口④ |③---|
口口口口 |④---|
66
口②②口 |①---|
口口口口 |----|
口①①口 |②---|
口口口口 |----|
67
口口口口 |①---|
口①口口 |②---|
口口②口 |③---|
口③口口 |----|
68
口口口口 |①---|
口②口口 |----|
口口①口 |②---|
口口口口 |----|
69
口④口口 |①---|
口口③口 |②---|
口①口② |③---|
口口口口 |④---|
70
口②②口 |①---|
口口口口 |----|
口①①口 |②---|
口口口口 |----|
71
口口口口 |①---|
口口口口 |②---|
口③②① |③---|
口口口口 |----|
72
口②口口 |①---|
③口①口 |----|
口口口口 |②---|
口口口口 |③---|
73
口④口③ |①---|
口口②口 |②---|
口①口口 |③---|
口口口口 |④---|
74
口口口口 |①---|
口②①口 |----|
口口口口 |②---|
口口口口 |----|
75
口口口口 |①---|
口口口口 |②---|
③口①口 |③---|
口②口口 |----|
76
口口口口 |①---|
口口口口 |----|
口口口口 |②---|
口①②口 |----|
77
口口口口 |①---|
口口①口 |②---|
口②口口 |③---|
口口③口 |----|
78
口口口口 |①---|
口①口口 |----|
口口口口 |----|
口口口口 |----|
79
口口口口 |①---|
口口①口 |----|
口口口口 |----|
口口口口 |----|
80
口口口口 |①---|
口口口口 |----|
口口①口 |----|
口口口口 |----|
81
口口口口 |①---|
口口口口 |----|
口①口口 |----|
口口口口 |----|
82
口口口口 |①---|
口①口口 |----|
口口口口 |----|
口口口口 |----|
83
口口口口 |①---|
口口①口 |----|
口口口口 |----|
口口口口 |----|
84
口口口口 |①---|
口口口口 |----|
口口①口 |----|
口口口口 |----|
85
口口口口 |①---|
口口口口 |----|
口①口口 |----|
口口口口 |----|

不確定度: 0

最終更新:2014年05月21日 18:50